Other

Foreign Correspontent The Kokoda Fatal Air Crash Aussie TV 18 08 2009

  • Download 5x Faster
  • Download torrent
  • Direct Download
  • Rate this torrent +  |  -
Foreign Correspontent The Kokoda Fatal Air Crash Aussie TV 18 08 2009

Free and Direct Download with Usenet.nl 300GB+ free


Torrent info

Name:Foreign Correspontent The Kokoda Fatal Air Crash Aussie TV 18 08 2009

Total Size: 550.09 MB

Magnet: Magnet Link

Seeds: 1

Leechers: 7

Stream: Watch Online @ Movie4u

Last Updated: 2010-09-30 20:24:15 (Update Now)

Torrent added: 2009-08-20 09:39:07





Torrent Files List


The Kokoda Fatal Air Crash.avi (Size: 550.09 MB) (Files: 5)

 The Kokoda Fatal Air Crash.avi

549.95 MB

 04.jpg

46.63 KB

 02.jpg

44.91 KB

 01.jpg

32.14 KB

 03.jpg

23.70 KB
 

Announce URL: http://greekadiko.biz:2710/6f52d0271d37ca2790aec7100d45a95c/announce

Torrent description

Foreign Correspontent   The Kokoda Fatal Air Crash   Aussie TV   18 08 2009 preview 0

Here is a doc about last weeks Kokoda air crash who has cost another 12 peoples lives again!




General Information:
Complete name : The Kokoda Fatal Air Crash.avi
Format : AVI
Format/Info : Audio Video Interleave
File size : 550 MiB
Duration : 26mn 34s
Overall bit rate : 2 893 Kbps
Writing application : VirtualDubMod 1.5.4.1 (build 2178/release)
Writing library : VirtualDubMod build 2178/release

Video
ID : 0
Format : MPEG-4 Visual
Format profile : [email protected]
Format settings, BVOP : No
Format settings, QPel : No
Format settings, GMC : No warppoints
Format settings, Matrix : Default (H.263)
Codec ID : XVID
Codec ID/Hint : XviD
Duration : 26mn 34s
Bit rate : 2 694 Kbps
Width : 720 pixels
Height : 416 pixels
Display aspect ratio : 16/9
Frame rate : 25.000 fps
Resolution : 24 bits
Colorimetry : 4:2:0
Scan type : Progressive
Bits/(Pixel*Frame) : 0.360
Stream size : 512 MiB (93%)
Writing library : XviD 1.2.1 (UTC 2008-12-04)

Audio
ID : 1
Format : MPEG Audio
Format version : Version 1
Format profile : Layer 3
Codec ID : 55
Codec ID/Hint : MP3
Duration : 26mn 34s
Bit rate mode : Constant
Bit rate : 192 Kbps
Channel(s) : 2 channels
Sampling rate : 48.0 KHz
Resolution : 16 bits
Stream size : 36.5 MiB (7%)
Alignment : Aligned on interleaves
Interleave, duration : 80 ms (2.00 video frames)
Interleave, preload duration : 504 ms
Writing library : LAME3.98r
Encoding settings : -m j -V 4 -q 2 -lowpass 18.6 -b 192



Screenshots:

Foreign Correspontent   The Kokoda Fatal Air Crash   Aussie TV   18 08 2009 preview 1

Foreign Correspontent   The Kokoda Fatal Air Crash   Aussie TV   18 08 2009 preview 2

Foreign Correspontent   The Kokoda Fatal Air Crash   Aussie TV   18 08 2009 preview 3



related torrents

Torrent name

health leech seeds Size
 

comments (0)

Main Menu