Other

4 Corners The Internet Crime Stoppers Aussie TV 18 08 2009 Digital Recording

  • Download 5x Faster
  • Download torrent
  • Direct Download
  • Rate this torrent +  |  -


Torrent info

Name:4 Corners The Internet Crime Stoppers Aussie TV 18 08 2009 Digital Recording

Total Size: 914.93 MB

Magnet: Magnet Link

Seeds: 1

Leechers: 29

Stream: Watch Online @ Movie4u

Last Updated: 2010-09-30 20:14:28 (Update Now)

Torrent added: 2009-08-20 09:38:59




Torrent Files List


06.jpg (Size: 914.93 MB) (Files: 7)

 06.jpg

22.46 KB

 03.jpg

25.21 KB

 02.jpg

25.39 KB

 05.jpg

26.40 KB

 04.jpg

28.19 KB

 01.jpg

34.68 KB

 4corners.avi

914.77 MB
 

Announce URL: http://greekadiko.biz:2710/6f52d0271d37ca2790aec7100d45a95c/announce

Torrent description

4 Corners   The Internet Crime Stoppers   Aussie TV   18 08 2009   Digital Recording preview 0



Here is doc where i believe you all have to see it!
It has to do with "The Internet Crime" and how the "Fed'z" going with the subject to get you!

You think you are a safe cracker?
You think you are a safe downloader?
You think you are safe on the Internet?

Well....... Here is the doc, and i am sure it will change your mind!
Learn the "Fed'z" operation and how they get you!

Continued at your screen........




General
Complete name : 4corners.avi
Format : AVI
Format/Info : Audio Video Interleave
File size : 915 MiB
Duration : 44mn 11s
Overall bit rate : 2 894 Kbps

Video
ID : 0
Format : MPEG-4 Visual
Format profile : Streaming [email protected]
Format settings, BVOP : Yes
Format settings, QPel : No
Format settings, GMC : No warppoints
Format settings, Matrix : Default (H.263)
Muxing mode : Packed bitstream
Codec ID : XVID
Codec ID/Hint : XviD
Duration : 44mn 11s
Bit rate : 2 692 Kbps
Width : 680 pixels
Height : 400 pixels
Display aspect ratio : 16/9
Frame rate : 25.000 fps
Resolution : 24 bits
Colorimetry : 4:2:0
Scan type : Progressive
Bits/(Pixel*Frame) : 0.396
Stream size : 851 MiB (93%)
Writing library : XviD 1.2.1 (UTC 2008-12-04)

Audio
ID : 1
Format : MPEG Audio
Format version : Version 1
Format profile : Layer 3
Codec ID : 55
Codec ID/Hint : MP3
Duration : 44mn 11s
Bit rate mode : Constant
Bit rate : 192 Kbps
Channel(s) : 2 channels
Sampling rate : 44.1 KHz
Resolution : 16 bits
Stream size : 60.7 MiB (7%)
Alignment : Split accross interleaves
Interleave, duration : 40 ms (1.00 video frame)



Screenshots:

4 Corners   The Internet Crime Stoppers   Aussie TV   18 08 2009   Digital Recording preview 1

4 Corners   The Internet Crime Stoppers   Aussie TV   18 08 2009   Digital Recording preview 2

4 Corners   The Internet Crime Stoppers   Aussie TV   18 08 2009   Digital Recording preview 3

4 Corners   The Internet Crime Stoppers   Aussie TV   18 08 2009   Digital Recording preview 4

4 Corners   The Internet Crime Stoppers   Aussie TV   18 08 2009   Digital Recording preview 5

related torrents

Torrent name

health leech seeds Size
 

comments (0)

Main Menu