Action

Baader Meinhof Komplex DivXSUBs Eng+GrOmifast Greek

  • Download 5x Faster
  • Download torrent
  • Direct Download
  • Rate this torrent +  |  -
Baader Meinhof Komplex DivXSUBs Eng+GrOmifast Greek

Anonymous and free Direct Download 300GB+


Torrent info

Name:Baader Meinhof Komplex DivXSUBs Eng+GrOmifast Greek

Total Size: 1.42 GB

Magnet: Magnet Link

Seeds: 17

Leechers: 19

Stream: Watch Online @ Movie4u

Last Updated: 2010-11-30 07:34:39 (Update Now)

Torrent added: 2009-08-20 09:34:07



VPN For Torrents

Torrent Files List


The Movie 2CDs (Size: 1.42 GB) (Files: 17)

 The Movie 2CDs

  Baader Meinhof Komplex CD2.divx

703.41 MB

  Baader Meinhof Komplex CD1.divx

700.47 MB

 Snapshots

  Baader Meinhof Komplex CD1_9.jpg

57.91 KB

  Baader Meinhof Komplex CD1_8.jpg

68.37 KB

  Baader Meinhof Komplex CD1_7.jpg

68.66 KB

  Baader Meinhof Komplex CD1_6.jpg

42.80 KB

  Baader Meinhof Komplex CD1_5.jpg

57.36 KB

  Baader Meinhof Komplex CD1_4.jpg

39.48 KB

  Baader Meinhof Komplex CD1_3.jpg

64.98 KB

  Baader Meinhof Komplex CD1_2.jpg

37.18 KB

  Baader Meinhof Komplex CD1_1.jpg

50.29 KB

 Sample + Trailer

  Baader Meinhof Komplex - Trailer.mp4

13.15 MB

  Baader Meinhof Komplex - Sample.divx

40.21 MB

 Info Documents

  Media Info.txt

2.75 KB

  Greek Info.doc

1.89 KB

  Greek - Divx7 video.doc

1.26 KB

  English Info.rtf

0.45 KB
 

Announce URL: http://tracker.openbittorrent.com/announce

Torrent description

Optional English and Greek Subtitles

Use DivX7 player to turn on the subtitles on PC.
Use TV control for your television.

Movie Trailer, Sample, Snapsots, English and Greek Info.txt Included

---------------------------------------------------------------------

Der Baader Meinhof Komplex (2008)
http://www.imdb.com/title/tt0765432/

Plot: Set in Germany, chronicles the rise and fall of the Red Army Faction, postwar Western Germany's most active left-wing terrorism organization, also known as the Baader-Meinhof Group.

Starring: Martina Gedeck, Moritz Bleibtreu, Alexandra Maria Lara, Bruno Ganz

----------------------------------------------------------------------

Direct Download, Photo, Trailer, and Full Synopsis in Greek and English:
www.omifast-mainmovies.blogspot.com

-----------------------------------------------------------------------

General

Format : DivX
Format/Info : Hack of AVI
File size : 700 MiB
Duration : 1h 1mn
Overall bit rate : 1 587 Kbps

Video
ID : 0
Format : MPEG-4 Visual
Format profile : [email protected]
Format settings, BVOP : Yes
Format settings, QPel : No
Format settings, GMC : No warppoints
Format settings, Matrix : Default (MPEG)
Codec ID : XVID
Codec ID/Hint : XviD
Duration : 1h 1mn
Bit rate : 1 123 Kbps
Width : 608 pixels
Height : 320 pixels
Display aspect ratio : 1.900
Frame rate : 25.000 fps
Resolution : 24 bits
Colorimetry : 4:2:0
Scan type : Progressive
Bits/(Pixel*Frame) : 0.231
Stream size : 496 MiB (71%)
Title : Video
Writing library : XviD 1.2.1 (UTC 2008-12-04)

Audio
ID : 1
Format : AC-3
Format/Info : Audio Coding 3
Codec ID : 2000
Duration : 1h 1mn
Bit rate mode : Constant
Bit rate : 448 Kbps
Channel(s) : 6 channels
Channel positions : Front: L C R, Surround: L R, LFE
Sampling rate : 48.0 KHz
Stream size : 198 MiB (28%)
Alignment : Split accross interleaves
Interleave, duration : 40 ms (1.00 video frame)
Interleave, preload duration : 500 ms
Title : Audio

Text #1
Format : DivX Subtitle
Codec ID : DXSB
Codec ID/Info : Subtitle in AVI from DivX networks
Width : 720 pixels
Height : 576 pixels
Resolution : 4 bits
Stream size : 1.32 MiB (0%)
Title : Subtitle - el;02

Text #2
Format : DivX Subtitle
Codec ID : DXSB
Codec ID/Info : Subtitle in AVI from DivX networks
Width : 720 pixels
Height : 576 pixels
Resolution : 4 bits
Stream size : 1.20 MiB (0%)
Title : Subtitle - en;02

!

related torrents

Torrent name

health leech seeds Size
 


comments (0)

Main Menu