Animation

Horton Hears A Who! 2008 DVDRip N!CK

  • Download 5x Faster
  • Download torrent
  • Direct Download
  • Rate this torrent +  |  -
Horton Hears A Who! 2008 DVDRip N!CK

Free and Direct Download with Usenet.nl 300GB+ free


Torrent info

Name:Horton Hears A Who! 2008 DVDRip N!CK

Total Size: 705.98 MB

Magnet: Magnet Link

Seeds: 30

Leechers: 11

Stream: Watch Online @ Movie4u

Last Updated: 0000-00-00 00:00:00 (Update Now)

Torrent added: 2009-08-20 09:33:33





Torrent Files List


Release Info.txt (Size: 705.98 MB) (Files: 5)

 Release Info.txt

1.00 KB

 Sample.avi

7.75 MB

 Horton Hears A Who! [2008] DVDRip - N!CK.avi

698.07 MB

 Subtitles

  Horton Hears A Who! [2008] DVDRip [ROM].srt

76.84 KB

  Horton Hears A Who! [2008] DVDRip [ENG].srt

83.51 KB
 

Announce URL: http://tracker.openbittorrent.com:80/announce

Torrent description

General
Complete name : C:\Horton Hears A Who! [2008] DVDRip - N!CK\Horton Hears A Who! [2008] DVDRip - N!CK.avi
Format : AVI
Format/Info : Audio Video Interleave
File size : 698 MiB
Duration : 1h 26mn
Overal bit rate : 1133 Kbps

Video
Format : MPEG-4 Visual
Format profile : Streaming [email protected]
Format settings, BVOP : Yes
Format settings, QPel : No
Format settings, GMC : No warppoints
Format settings, Matrix : Default
Codec ID : XVID
Codec ID/Hint : XviD
Duration : 1h 26mn
Bit rate : 1024 Kbps
Width : 640 pixels
Height : 288 pixels
Display aspect ratio : 2.222
Frame rate : 23.976 fps
Resolution : 8 bits
Colorimetry : 4:2:0
Scan type : Progressive
Bits/(Pixel*Frame) : 0.232
Stream size : 631 MiB
Writing library : XviD 50

Audio
Format : MPEG Audio
Format version : Version 1
Format profile : Layer 3
Codec ID : 55
Codec ID/Hint : MP3
Bit rate mode : Constant
Bit rate : 96.0 Kbps
Channel(s) : 2 channels
Sampling rate : 48.0 KHz
Resolution : 16 bits
Stream size : 59.2 MiB

related torrents

Torrent name

health leech seeds Size
 

comments (0)

Main Menu