Action

10 James Bond The Spy Who Loved Me1977DVDripEngAC35 1 Atlas47

  • Download 5x Faster
  • Download torrent
  • Direct Download
  • Rate this torrent +  |  -
10 James Bond The Spy Who Loved Me1977DVDripEngAC35 1 Atlas47

Free and Direct Download with Usenet.nl 300GB+ free


Torrent info

Name:10 James Bond The Spy Who Loved Me1977DVDripEngAC35 1 Atlas47

Total Size: 1.37 GB

Magnet: Magnet Link

Seeds: 0

Leechers: 0

Stream: Watch Online @ Movie4u

Last Updated: 2015-01-17 08:30:08 (Update Now)

Torrent added: 2009-08-20 07:32:07





Torrent Files List


Torrent_downloaded_from_Demonoid.com.txt (Size: 1.37 GB) (Files: 8)

 Torrent_downloaded_from_Demonoid.com.txt

0.05 KB

 The Spy Who Loved Me.sub

3.11 MB

 The Spy Who Loved Me.nfo

10.30 KB

 The Spy Who Loved Me.idx

33.45 KB

 The Spy Who Loved Me.avi

1.37 GB

 Covers

  Oops.txt

0.10 KB

  James Bond - The Spy Who Loved Me.jpg

397.90 KB

  James Bond - The Man With The Golden Gun.jpg

1.52 MB
 

Announce URL:

Torrent description


??????????????????????????????>>www.tornster.com<<??????????????????????????????
? ?
? INFO: ?
? ?
? General ?
? Complete name : The Man With The Golden Gun ?
? Genre : Action / Adventure / Thriller ?
? Format : AVI ?
? Format/Info : Audio Video Interleave ?
? File size : 1.37 GiB ?
? Duration : 2h 00mn ?
? Overall bit rate : 1 626 Kbps ?
? Writing application : VirtualDubMod 1.5.4.1 (build 2178/release)?
? Writing library : VirtualDubMod build 2178/release ?
? ?
? Video ?
? Format : MPEG-4 Visual ?
? Format settings, BVOP : Yes ?
? Format settings, QPel : No ?
? Format settings, GMC : No warppoints ?
? Format settings, Matrix : Default ?
? Codec ID : DX50 ?
? Codec ID/Hint : DivX 5 ?
? Duration : 2h 00mn ?
? Bit rate : 1 171 Kbps ?
? Width : 672 pixels ?
? Height : 288 pixels ?
? Display aspect ratio : 2.35 ?
? Frame rate : 25.000 fps ?
? Resolution : 24 bits ?
? Colorimetry : 4:2:0 ?
? Scan type : Progressive ?
? Bits/(Pixel*Frame) : 0.242 ?
? Stream size : 1.009 MiB (72%) ?
? Writing library : DivX 2816 ?
? ?
? Audio ?
? Format : AC-3 ?
? Format/Info : Audio Coding 3 ?
? Codec ID : 2000 ?
? Duration : 2h 00mn ?
? Bit rate mode : Constant ?
? Bit rate : 448 Kbps ?
? Channel(s) : 6 channels ?
? Channel positions : Front: L C R, Surround: L R, LFE ?
? Sampling rate : 48.0 KHz ?
? Stream size : 386 MiB (28%) ?
? Alignment : Split accross interleaves ?
? Interleave, duration : 80 ms (2.00 video frames) ?
? Interleave, preload duration : 500 ms ?
? Language : English ?
? Subtitles : English ?
? ?
? IMDb Rating : 7.1/10 ?
? IMDb URL : http://www.imdb.com/title/tt0076752/ ?
? ?
????????????????????????????????????????????????????????????????????????????????
? ?
? Nobody does it better than Bond, and he proves it once more in this ?
? explosively entertaining adventure that takes him from the Egyptian pyramids ?
? to the ocean floor and to a gravity-defying mountaintop ski chase! Roger ?
? Moore brings inimitable style to Agent 007 as he teams with beautiful ?
? Russian agent Anya Amasova (Barbara Bach) to stop the megalomanic Stromberg ?
? (Curt Jurgens) from unleashing an horrific scheme for world domination. ?
? ?
? ?
? ?
? ?
? ?
????????????????????????????????????????????????????????????????????????????????
? ?
? CAST: ?
? ?
? Roger Moore................James Bond ?
? Barbara Bach...............Major Anya Amasova ?
? Curt Jurgens...............Karl Stromberg ?
? Richard Kiel...............Jaws ?
? Caroline Munro.............Naomi ?
? Walter Gotell..............General Antol Gogol ?
? Geoffrey Keen..............Sir Frederick Gray ?
? ?
????????????????????????????????????????????????????????????????????????????????
? ?
? Please remember to seed ?
? ?
? Seeding is good for the soul ?
? ?
? www.tornster.com ?
? ?
????????????????????????????????????????????????????????????????????????????????

related torrents

Torrent name

health leech seeds Size
 

comments (0)

Main Menu