Action

09 James Bond The Man With The Golden Gun1974DVDripEngAC35 1 Atlas47

  • Download 5x Faster
  • Download torrent
  • Direct Download
  • Rate this torrent +  |  -
09 James Bond The Man With The Golden Gun1974DVDripEngAC35 1 Atlas47

Free and Direct Download with Usenet.nl 300GB+ free


Torrent info

Name:09 James Bond The Man With The Golden Gun1974DVDripEngAC35 1 Atlas47

Total Size: 1.37 GB

Magnet: Magnet Link

Seeds: 0

Leechers: 0

Stream: Watch Online @ Movie4u

Last Updated: 2015-09-06 12:19:03 (Update Now)

Torrent added: 2009-08-20 07:32:01





Torrent Files List


Torrent_downloaded_from_Demonoid.com.txt (Size: 1.37 GB) (Files: 5)

 Torrent_downloaded_from_Demonoid.com.txt

0.05 KB

 The Man With The Golden Gun.sub

3.74 MB

 The Man With The Golden Gun.nfo

10.30 KB

 The Man With The Golden Gun.idx

39.86 KB

 The Man With The Golden Gun.avi

1.37 GB
 

tracker

leech seeds
 

Torrent description


±±±±±±±±±±±±±±±±±±±±±±±±±±±±±±±±±±±±±±±±±±±±±±±±±±±±±±±±±±±±±±±±±±±±±±±±±±±±±±±±
± ±
± INFO: ±
± ±
± General ±
± Complete name : The Man With The Golden Gun ±
± Genre : Action / Adventure / Thriller ±
± Format : AVI ±
± Format/Info : Audio Video Interleave ±
± File size : 1.37 GiB ±
± Duration : 1h 59mn ±
± Overall bit rate : 1 632 Kbps ±
± Writing application : VirtualDubMod 1.5.4.1 (build 2178/release)±
± Writing library : VirtualDubMod build 2178/release ±
± ±
± Video ±
± Format : MPEG-4 Visual ±
± Format settings, BVOP : Yes ±
± Format settings, QPel : No ±
± Format settings, GMC : No warppoints ±
± Format settings, Matrix : Default ±
± Codec ID : DX50 ±
± Codec ID/Hint : DivX 5 ±
± Duration : 1h 59mn ±
± Bit rate : 1 177 Kbps ±
± Width : 608 pixels ±
± Height : 336 pixels ±
± Display aspect ratio : 16/9 ±
± Frame rate : 25.000 fps ±
± Resolution : 24 bits ±
± Colorimetry : 4:2:0 ±
± Scan type : Progressive ±
± Bits/(Pixel*Frame) : 0.230 ±
± Stream size : 1.010 MiB (72%) ±
± Writing library : DivX 2816 ±
± ±
± Audio ±
± Format : AC-3 ±
± Format/Info : Audio Coding 3 ±
± Codec ID : 2000 ±
± Duration : 1h 59mn ±
± Bit rate mode : Constant ±
± Bit rate : 448 Kbps ±
± Channel(s) : 6 channels ±
± Channel positions : Front: L C R, Surround: L R, LFE ±
± Sampling rate : 48.0 KHz ±
± Stream size : 384 MiB (27%) ±
± Alignment : Split accross interleaves ±
± Interleave, duration : 80 ms (2.00 video frames) ±
± Interleave, preload duration : 500 ms ±
± Language : English ±
± Subtitles : English ±
± ±
± IMDb Rating : 6.7/10 ±
± IMDb URL : http://www.imdb.com/title/tt0071807/ ±
± ±
±°°°°°°°°°°°°°°°°°°°°°°°°°°°°°°°°°°°°°°°°°°°°°°°°°°°°°°°°°°°°°°°°°°°°°°°°°°°°°°±
± ±
± James Bond has been marked for death, and he'll need all his lethal ±
± instincts and seductive charm to survive in this action-packed adventure! ±
± Roger Moore returns as Agent 007 and faces off in a deadly game of cat-and- ±
± mouse with assassin Francisco Scaramanga (Christopher Lee), featuring a wild ±
± automobile chase through Bangkok and Bond's stunning confrontation with an ±
± entire martial arts school, The Man With The Golden Gun delivers pull-out- ±
± the-stops excitement! ±
± ±
± ±
± ±
± ±
±°°°°°°°°°°°°°°°°°°°°°°°°°°°°°°°°°°°°°°°°°°°°°°°°°°°°°°°°°°°°°°°°°°°°°°°°°°°°°°±
± ±
± CAST: ±
± ±
± Roger Moore................James Bond ±
± Christopher Lee............Francisco Scaramanga ±
± Britt Ekland...............Mary Goodnight ±
± Maud Adams.................Andrea Anders ±
± Herve Villenchaize.........Nick Nack ±
± Clifton James..............Sheriff J.W. Pepper ±
± Richard Loo................Hai Fat ±
± ±
±°°°°°°°°°°°°°°°°°°°°°°°°°°°°°°°°°°°°°°°°°°°°°°°°°°°°°°°°°°°°°°°°°°°°°°°°°°°°°°±
± ±
± Please remember to seed ±
± ±
± Seeding is good for the soul ±
± ±
± www.tornster.com ±
± ±
±±±±±±±±±±±±±±±±±±±±±±±±±±±±±±±±±±±±±±±±±±±±±±±±±±±±±±±±±±±±±±±±±±±±±±±±±±±±±±±±

related torrents

Torrent name

health leech seeds Size
 

comments (0)

Main Menu