Action

08 James Bond Live And Let Die1973DVDripEngAC35 1 Atlas47

  • Download 5x Faster
  • Download torrent
  • Direct Download
  • Rate this torrent +  |  -
08 James Bond Live And Let Die1973DVDripEngAC35 1 Atlas47

Free and Direct Download with Usenet.nl 300GB+ free


Torrent info

Name:08 James Bond Live And Let Die1973DVDripEngAC35 1 Atlas47

Total Size: 1.37 GB

Magnet: Magnet Link

Seeds: 6

Leechers: 6

Stream: Watch Online @ Movie4u

Last Updated: 2010-11-30 07:18:30 (Update Now)

Torrent added: 2009-08-20 07:31:54





Torrent Files List


Covers (Size: 1.37 GB) (Files: 6)

 Covers

  James Bond - Live And Let Die.jpg

1.47 MB

 Live And Let Die.avi

1.37 GB

 Live And Let Die.idx

35.29 KB

 Live And Let Die.nfo

10.30 KB

 Live And Let Die.sub

3.29 MB

 Torrent_downloaded_from_Demonoid.com.txt

0.05 KB
 

Announce URL: http://tracker.thepiratebay.org:80/announce

Torrent description


±±±±±±±±±±±±±±±±±±±±±±±±±±±±±±±±±±±±±±±±±±±±±±±±±±±±±±±±±±±±±±±±±±±±±±±±±±±±±±±±
± ±
± INFO: ±
± ±
± General ±
± Complete name : Live And Let Die ±
± Genre : Action / Adventure / Thriller ±
± Format : AVI ±
± Format/Info : Audio Video Interleave ±
± File size : 1.37 GiB ±
± Duration : 1h 56mn ±
± Overall bit rate : 1 680 Kbps ±
± Writing application : VirtualDubMod 1.5.4.1 (build 2178/release)±
± Writing library : VirtualDubMod build 2178/release ±
± ±
± Video ±
± Format : MPEG-4 Visual ±
± Format settings, BVOP : Yes ±
± Format settings, QPel : No ±
± Format settings, GMC : No warppoints ±
± Format settings, Matrix : Default ±
± Codec ID : DX50 ±
± Codec ID/Hint : DivX 5 ±
± Duration : 1h 56mn ±
± Bit rate : 1 225 Kbps ±
± Width : 608 pixels ±
± Height : 336 pixels ±
± Display aspect ratio : 16/9 ±
± Frame rate : 25.000 fps ±
± Resolution : 24 bits ±
± Colorimetry : 4:2:0 ±
± Scan type : Progressive ±
± Bits/(Pixel*Frame) : 0.240 ±
± Stream size : 1.021 MiB (73%) ±
± Writing library : DivX 2816 ±
± ±
± Audio ±
± Format : AC-3 ±
± Format/Info : Audio Coding 3 ±
± Codec ID : 2000 ±
± Duration : 1h 56mn ±
± Bit rate mode : Constant ±
± Bit rate : 448 Kbps ±
± Channel(s) : 6 channels ±
± Channel positions : Front: L C R, Surround: L R, LFE ±
± Sampling rate : 48.0 KHz ±
± Stream size : 374 MiB (26%) ±
± Alignment : Split accross interleaves ±
± Interleave, duration : 80 ms (2.00 video frames) ±
± Interleave, preload duration : 500 ms ±
± Language : English ±
± Subtitles : English ±
± ±
± IMDb Rating : 6.8/10 ±
± IMDb URL : http://www.imdb.com/title/tt0070328/ ±
± ±
±°°°°°°°°°°°°°°°°°°°°°°°°°°°°°°°°°°°°°°°°°°°°°°°°°°°°°°°°°°°°°°°°°°°°°°°°°°°°°°±
± ±
± James Bond battles the forces of black magic in this high-octane adventure ±
± that hurtles him from the streets of New York City to Louisiana's bayou ±
± country. With charm, wit and deadly assurance, Roger Moore steps in as Agent ±
± 007 and takes on a powerful drug lord (Yaphet Kotto) with a diabolical ±
± scheme to conquer the world. ±
± ±
± ±
± ±
± ±
± ±
± ±
±°°°°°°°°°°°°°°°°°°°°°°°°°°°°°°°°°°°°°°°°°°°°°°°°°°°°°°°°°°°°°°°°°°°°°°°°°°°°°°±
± ±
± CAST: ±
± ±
± Roger Moore................James Bond ±
± Yaphet Kotto...............Kananga / Mr. Big ±
± Jane Seymour...............Solitaire ±
± Clifton James..............Sheriff J.W. Pepper ±
± Julius Harris..............Tee Hee ±
± Geoffrey Holder............Baron Samedi ±
± David Hedison..............Felix Leiter ±
± ±
±°°°°°°°°°°°°°°°°°°°°°°°°°°°°°°°°°°°°°°°°°°°°°°°°°°°°°°°°°°°°°°°°°°°°°°°°°°°°°°±
± ±
± Please remember to seed ±
± ±
± Seeding is good for the soul ±
± ±
± www.tornster.com ±
± ±
±±±±±±±±±±±±±±±±±±±±±±±±±±±±±±±±±±±±±±±±±±±±±±±±±±±±±±±±±±±±±±±±±±±±±±±±±±±±±±±±

related torrents

Torrent name

health leech seeds Size
 

comments (0)

Main Menu