Action

07 James Bond Diamonds Are Forever1971DVDripEngAC35 1 Atlas47

  • Download 5x Faster
  • Download torrent
  • Direct Download
  • Rate this torrent +  |  -
07 James Bond Diamonds Are Forever1971DVDripEngAC35 1 Atlas47

Free and Direct Download with Usenet 300GB+ free


Torrent info

Name:07 James Bond Diamonds Are Forever1971DVDripEngAC35 1 Atlas47

Total Size: 1.37 GB

Magnet: Magnet Link

Seeds: 16

Leechers: 21

Stream: Watch Online @ Movie4u

Last Updated: 2010-11-22 21:05:26 (Update Now)

Torrent added: 2009-08-20 07:31:47




Torrent Files List


Torrent_downloaded_from_Demonoid.com.txt (Size: 1.37 GB) (Files: 6)

 Torrent_downloaded_from_Demonoid.com.txt

0.05 KB

 Diamonds Are Forever.sub

4.29 MB

 Diamonds Are Forever.nfo

10.30 KB

 Diamonds Are Forever.idx

43.68 KB

 Diamonds Are Forever.avi

1.37 GB

 Covers

  James Bond - Diamonds Are Forever.jpg

1.52 MB
 

Announce URL: http://tracker.thepiratebay.org:80/announce

Torrent description


±±±±±±±±±±±±±±±±±±±±±±±±±±±±±±±±±±±±±±±±±±±±±±±±±±±±±±±±±±±±±±±±±±±±±±±±±±±±±±±±
± ±
± INFO: ±
± ±
± General ±
± Complete name : Diamonds Are Forever ±
± Genre : Action / Adventure / Thriller ±
± Format : AVI ±
± Format/Info : Audio Video Interleave ±
± File size : 1.37 GiB ±
± Duration : 1h 55mn ±
± Overall bit rate : 1 701 Kbps ±
± Writing application : VirtualDubMod 1.5.4.1 (build 2178/release)±
± Writing library : VirtualDubMod build 2178/release ±
± ±
± Video ±
± Format : MPEG-4 Visual ±
± Format settings, BVOP : Yes ±
± Format settings, QPel : No ±
± Format settings, GMC : No warppoints ±
± Format settings, Matrix : Default ±
± Codec ID : DX50 ±
± Codec ID/Hint : DivX 5 ±
± Duration : 1h 55mn ±
± Bit rate : 1 246 Kbps ±
± Width : 704 pixels ±
± Height : 304 pixels ±
± Display aspect ratio : 2.35 ±
± Frame rate : 25.000 fps ±
± Resolution : 24 bits ±
± Colorimetry : 4:2:0 ±
± Scan type : Progressive ±
± Bits/(Pixel*Frame) : 0.233 ±
± Stream size : 1.00 GiB (73%) ±
± Writing library : DivX 2816 ±
± ±
± Audio ±
± Format : AC-3 ±
± Format/Info : Audio Coding 3 ±
± Codec ID : 2000 ±
± Duration : 1h 55mn ±
± Bit rate mode : Constant ±
± Bit rate : 448 Kbps ±
± Channel(s) : 6 channels ±
± Channel positions : Front: L C R, Surround: L R, LFE ±
± Sampling rate : 48.0 KHz ±
± Stream size : 369 MiB (26%) ±
± Alignment : Split accross interleaves ±
± Interleave, duration : 80 ms (2.00 video frames) ±
± Interleave, preload duration : 500 ms ±
± Language : English ±
± Subtitles : English ±
± ±
± IMDb Rating : 6.7/10 ±
± IMDb URL : http://www.imdb.com/title/tt0066995/ ±
± ±
±°°°°°°°°°°°°°°°°°°°°°°°°°°°°°°°°°°°°°°°°°°°°°°°°°°°°°°°°°°°°°°°°°°°°°°°°°°°°°°±
± ±
± A Fortune in stolen diamonds thrusts James Bond into action in this ±
± thrilling adventure! Sean Connery returns as Agent 007 and teams up with the ±
± beautiful Tiffany Case (Jill St. John) to prevent his nemesis Blofeld ±
± (Charles Gray) from using the diamonds in a deadly laser satellite. ±
± ±
± ±
± ±
± ±
± ±
± ±
± ±
±°°°°°°°°°°°°°°°°°°°°°°°°°°°°°°°°°°°°°°°°°°°°°°°°°°°°°°°°°°°°°°°°°°°°°°°°°°°°°°±
± ±
± CAST: ±
± ±
± Sean Connery...............James Bond ±
± Jill St. John..............Tiffany Case ±
± Charles Gray...............Ernst Stavro Blofeld ±
± Lana Wood..................Plenty O'Toole ±
± Bernard Lee................M ±
± Jimmy Dean.................Willard Whyte ±
± Lois Maxwell...............Miss Moneypenny ±
± ±
±°°°°°°°°°°°°°°°°°°°°°°°°°°°°°°°°°°°°°°°°°°°°°°°°°°°°°°°°°°°°°°°°°°°°°°°°°°°°°°±
± ±
± Please remember to seed ±
± ±
± Seeding is good for the soul ±
± ±
± www.tornster.com ±
± ±
±±±±±±±±±±±±±±±±±±±±±±±±±±±±±±±±±±±±±±±±±±±±±±±±±±±±±±±±±±±±±±±±±±±±±±±±±±±±±±±±

related torrents

Torrent name

health leech seeds Size
 

comments (0)

Main Menu