Action

05 James Bond You Only Live Twice1967DVDripEngAC35 1 Atlas47

  • Download 5x Faster
  • Download torrent
  • Direct Download
  • Rate this torrent +  |  -
05 James Bond You Only Live Twice1967DVDripEngAC35 1 Atlas47

Free and Direct Download with Usenet 300GB+ free


Torrent info

Name:05 James Bond You Only Live Twice1967DVDripEngAC35 1 Atlas47

Total Size: 1.37 GB

Magnet: Magnet Link

Seeds: 0

Leechers: 0

Stream: Watch Online @ Movie4u

Last Updated: 2013-02-08 21:07:21 (Update Now)

Torrent added: 2009-08-20 07:31:46




Torrent Files List


Torrent_downloaded_from_Demonoid.com.txt (Size: 1.37 GB) (Files: 6)

 Torrent_downloaded_from_Demonoid.com.txt

0.05 KB

 Covers

  James Bond - You Only Live Twice.jpg

1.49 MB

 You Only Live Twice.avi

1.37 GB

 You Only Live Twice.idx

36.75 KB

 You Only Live Twice.nfo

10.30 KB

 You Only Live Twice.sub

3.45 MB
 

Announce URL:

Torrent description


±±±±±±±±±±±±±±±±±±±±±±±±±±±±±±±±±±±±±±±±±±±±±±±±±±±±±±±±±±±±±±±±±±±±±±±±±±±±±±±±
± ±
± INFO: ±
± ±
± General ±
± Complete name : You Only Live Twice ±
± Genre : Action / Adventure / Thriller ±
± Format : AVI ±
± Format/Info : Audio Video Interleave ±
± File size : 1.37 GiB ±
± Duration : 1h 52mn ±
± Overall bit rate : 1 747 Kbps ±
± Writing application : VirtualDubMod 1.5.4.1 (build 2178/release)±
± Writing library : VirtualDubMod build 2178/release ±
± ±
± Video ±
± Format : MPEG-4 Visual ±
± Format settings, BVOP : Yes ±
± Format settings, QPel : No ±
± Format settings, GMC : No warppoints ±
± Format settings, Matrix : Default ±
± Codec ID : DX50 ±
± Codec ID/Hint : DivX 5 ±
± Duration : 1h 52mn ±
± Bit rate : 1 292 Kbps ±
± Width : 688 pixels ±
± Height : 304 pixels ±
± Display aspect ratio : 2.25 ±
± Frame rate : 25.000 fps ±
± Resolution : 24 bits ±
± Colorimetry : 4:2:0 ±
± Scan type : Progressive ±
± Bits/(Pixel*Frame) : 0.247 ±
± Stream size : 1.01 GiB (74%) ±
± Writing library : DivX 2816 ±
± ±
± Audio ±
± Format : AC-3 ±
± Format/Info : Audio Coding 3 ±
± Codec ID : 2000 ±
± Duration : 1h 52mn ±
± Bit rate mode : Constant ±
± Bit rate : 448 Kbps ±
± Channel(s) : 6 channels ±
± Channel positions : Front: L C R, Surround: L R, LFE ±
± Sampling rate : 48.0 KHz ±
± Stream size : 359 MiB (26%) ±
± Alignment : Split accross interleaves ±
± Interleave, duration : 80 ms (2.00 video frames) ±
± Interleave, preload duration : 500 ms ±
± Language : English ±
± Subtitles : English ±
± ±
± IMDb Rating : 7.0/10 ±
± IMDb URL : http://www.imdb.com/title/tt0062512/ ±
± ±
±°°°°°°°°°°°°°°°°°°°°°°°°°°°°°°°°°°°°°°°°°°°°°°°°°°°°°°°°°°°°°°°°°°°°°°°°°°°°°°±
± ±
± A disaster in space pushes humankind toward World War 3, and only James Bond ±
± can prevent it in this magnificent, pull-out-the-stops spectacular. ±
± ±
± Sean Connery returns as Agent 007, who travels to Japan to stop the evil ±
± SPECTRE organization and it's diabolical leader, Ernst Stavro Blofeld, from ±
± instigating global warfare from his giant headquarters inside of an active ±
± Volcano. ±
± ±
± ±
± ±
± ±
±°°°°°°°°°°°°°°°°°°°°°°°°°°°°°°°°°°°°°°°°°°°°°°°°°°°°°°°°°°°°°°°°°°°°°°°°°°°°°°±
± ±
± CAST: ±
± ±
± Sean Connery...............James Bond ±
± Akiko Wakabayashi..........Aki ±
± Donald Pleasence...........Ernst Stavro Blofeld ±
± Tetsuro Tamba..............Tiger Tanaka ±
± Bernard Lee................M ±
± Mie Hama...................Kissy Suzuki ±
± Teru Shimada...............Mr. Osato ±
± ±
±°°°°°°°°°°°°°°°°°°°°°°°°°°°°°°°°°°°°°°°°°°°°°°°°°°°°°°°°°°°°°°°°°°°°°°°°°°°°°°±
± ±
± Please remember to seed ±
± ±
± Seeding is good for the soul ±
± ±
± www.tornster.com ±
± ±
±±±±±±±±±±±±±±±±±±±±±±±±±±±±±±±±±±±±±±±±±±±±±±±±±±±±±±±±±±±±±±±±±±±±±±±±±±±±±±±±

related torrents

Torrent name

health leech seeds Size
 

comments (0)

Main Menu