Action

02 James Bond From Russia With Love1963DVDripEngAC35 1 Atlas47

  • Download 5x Faster
  • Download torrent
  • Direct Download
  • Rate this torrent +  |  -
02 James Bond From Russia With Love1963DVDripEngAC35 1 Atlas47

Free and Direct Download with Usenet 300GB+ free


Torrent info

Name:02 James Bond From Russia With Love1963DVDripEngAC35 1 Atlas47

Total Size: 1.37 GB

Magnet: Magnet Link

Seeds: 0

Leechers: 1

Stream: Watch Online @ Movie4u

Last Updated: 2011-06-17 04:13:25 (Update Now)

Torrent added: 2009-08-20 07:31:40




Torrent Files List


Covers (Size: 1.37 GB) (Files: 6)

 Covers

  James Bond - From Russia With Love.jpg

391.22 KB

 From Russia With Love.avi

1.37 GB

 From Russia With Love.idx

38.90 KB

 From Russia With Love.nfo

10.30 KB

 From Russia With Love.sub

3.66 MB

 Torrent_downloaded_from_Demonoid.com.txt

0.05 KB
 

Announce URL: http://tracker.torrentbox.com:2710/announce

Torrent description


±±±±±±±±±±±±±±±±±±±±±±±±±±±±±±±±±±±±±±±±±±±±±±±±±±±±±±±±±±±±±±±±±±±±±±±±±±±±±±±±
± ±
± INFO: ±
± ±
± General ±
± Complete name : From Russia With Love ±
± Genre : Action / Adventure / Thriller ±
± Format : AVI ±
± Format/Info : Audio Video Interleave ±
± File size : 1.37 GiB ±
± Duration : 1h 50mn ±
± Overall bit rate : 1 776 Kbps ±
± Writing application : VirtualDubMod 1.5.4.1 (build 2178/release)±
± Writing library : VirtualDubMod build 2178/release ±
± ±
± Video ±
± Format : MPEG-4 Visual ±
± Format settings, BVOP : Yes ±
± Format settings, QPel : No ±
± Format settings, GMC : No warppoints ±
± Format settings, Matrix : Default ±
± Codec ID : DX50 ±
± Codec ID/Hint : DivX 5 ±
± Duration : 1h 50mn ±
± Bit rate : 1 321 Kbps ±
± Width : 624 pixels ±
± Height : 384 pixels ±
± Display aspect ratio : 1.625 ±
± Frame rate : 25.000 fps ±
± Resolution : 24 bits ±
± Colorimetry : 4:2:0 ±
± Scan type : Progressive ±
± Bits/(Pixel*Frame) : 0.221 ±
± Stream size : 1.02 GiB (74%) ±
± Writing library : DivX 2816 ±
± ±
± Audio ±
± Format : AC-3 ±
± Format/Info : Audio Coding 3 ±
± Codec ID : 2000 ±
± Duration : 1h 50mn ±
± Bit rate mode : Constant ±
± Bit rate : 448 Kbps ±
± Channel(s) : 6 channels ±
± Channel positions : Front: L C R, Surround: L R, LFE ±
± Sampling rate : 48.0 KHz ±
± Stream size : 353 MiB (25%) ±
± Alignment : Split accross interleaves ±
± Interleave, duration : 80 ms (2.00 video frames) ±
± Interleave, preload duration : 500 ms ±
± Language : English ±
± Subtitles : English ±
± ±
± IMDb Rating : 7.5/10 ±
± IMDb URL : http://www.imdb.com/title/tt0057076/ ±
± ±
±°°°°°°°°°°°°°°°°°°°°°°°°°°°°°°°°°°°°°°°°°°°°°°°°°°°°°°°°°°°°°°°°°°°°°°°°°°°°°°±
± ±
± Sean Connery returns as James Bond in this thrill-a-minute adventure ±
± featuring remarkable villains, beautiful women and exotic locales! This ±
± time, Bond squares off against the evil SPECTRE organisation in a race to ±
± seize the Soviet Lektor decoding machine, thrusting him into a thrilling ±
± boat chase, a brutal helicopter attack and a deadly brawl aboard the Orient ±
± Express. ±
± ±
± ±
± ±
± ±
± ±
±°°°°°°°°°°°°°°°°°°°°°°°°°°°°°°°°°°°°°°°°°°°°°°°°°°°°°°°°°°°°°°°°°°°°°°°°°°°°°°±
± ±
± CAST: ±
± ±
± Sean Connery...............James Bond ±
± Daniela Bianchi............Tatiana Romanova ±
± Robert Shaw................Red Grant ±
± Lotte Lenya................Rosa Klebb ±
± Bernard Lee................M ±
± Pedro Armandariz...........Ali Kerim Bey ±
± Lois Maxwell...............Miss Moneypenny ±
± ±
±°°°°°°°°°°°°°°°°°°°°°°°°°°°°°°°°°°°°°°°°°°°°°°°°°°°°°°°°°°°°°°°°°°°°°°°°°°°°°°±
± ±
± Please remember to seed ±
± ±
± Seeding is good for the soul ±
± ±
± www.tornster.com ±
± ±
±±±±±±±±±±±±±±±±±±±±±±±±±±±±±±±±±±±±±±±±±±±±±±±±±±±±±±±±±±±±±±±±±±±±±±±±±±±±±±±±

related torrents

Torrent name

health leech seeds Size
 

comments (0)

Main Menu