Action

01 James Bond Dr No1962DVDripEngAC32 0 Atlas47

  • Download 5x Faster
  • Download torrent
  • Direct Download
  • Rate this torrent +  |  -
01 James Bond Dr No1962DVDripEngAC32 0 Atlas47

Anonymous and Free Direct Download


Torrent info

Name:01 James Bond Dr No1962DVDripEngAC32 0 Atlas47

Total Size: 1.37 GB

Magnet: Magnet Link

Seeds: 0

Leechers: 0

Stream: Watch Online @ Movie4u

Last Updated: 2013-02-26 08:22:20 (Update Now)

Torrent added: 2009-08-20 07:31:28



VPN For Torrents

Torrent Files List


Dr. No.sub (Size: 1.37 GB) (Files: 6)

 Dr. No.sub

3.52 MB

 Torrent_downloaded_from_Demonoid.com.txt

0.05 KB

 Dr. No.avi

1.37 GB

 Dr. No.idx

50.50 KB

 Dr. No.nfo

10.30 KB

 Covers

  James Bond - Dr. No.jpg

422.33 KB
 

Announce URL:

Torrent description


±±±±±±±±±±±±±±±±±±±±±±±±±±±±±±±±±±±±±±±±±±±±±±±±±±±±±±±±±±±±±±±±±±±±±±±±±±±±±±±±
± ±
± INFO: ±
± ±
± General ±
± Complete name : Dr. No ±
± Genre : Action / Adventure / Thriller ±
± Format : AVI ±
± Format/Info : Audio Video Interleave ±
± File size : 1.37 GiB ±
± Duration : 1h 45mn ±
± Overall bit rate : 1 861 Kbps ±
± Writing application : VirtualDubMod 1.5.4.1 (build 2178/release)±
± Writing library : VirtualDubMod build 2178/release ±
± ±
± Video ±
± Format : MPEG-4 Visual ±
± Format settings, BVOP : Yes ±
± Format settings, QPel : No ±
± Format settings, GMC : No warppoints ±
± Format settings, Matrix : Default ±
± Codec ID : DX50 ±
± Codec ID/Hint : DivX 5 ±
± Duration : 1h 45mn ±
± Bit rate : 1 662 Kbps ±
± Width : 640 pixels ±
± Height : 368 pixels ±
± Display aspect ratio : 16/9 ±
± Frame rate : 25.000 fps ±
± Resolution : 24 bits ±
± Colorimetry : 4:2:0 ±
± Scan type : Progressive ±
± Bits/(Pixel*Frame) : 0.282 ±
± Stream size : 1.22 GiB (89%) ±
± Writing library : DivX 2816 ±
± ±
± Audio ±
± Format : AC-3 ±
± Format/Info : Audio Coding 3 ±
± Codec ID : 2000 ±
± Duration : 1h 45mn ±
± Bit rate mode : Constant ±
± Bit rate : 192 Kbps ±
± Channel(s) : 2 channels ±
± Channel positions : L R ±
± Sampling rate : 48.0 KHz ±
± Stream size : 144 MiB (10%) ±
± Alignment : Split accross interleaves ±
± Interleave, duration : 80 ms (2.00 video frames) ±
± Interleave, preload duration : 500 ms ±
± Language : English ±
± Subtitles : English ±
± ±
± IMDb Rating : 7.3/10 ±
± IMDb URL : http://www.imdb.com/title/tt0055928/ ±
± ±
±°°°°°°°°°°°°°°°°°°°°°°°°°°°°°°°°°°°°°°°°°°°°°°°°°°°°°°°°°°°°°°°°°°°°°°°°°°°°°°±
± ±
± In the film that launched the James Bond saga, Agent 007 battles the ±
± mysterious Dr. No, a scientific genius bent on destroying the U.S. space ±
± program. ±
± ±
± As the countdown to disaster begins, Bond must travel to Jamaica where he ±
± encounters the beautiful Honey Ryder and confronts the megalomaniacal ±
± villain in his massive island headquarters! ±
± ±
± ±
± ±
± ±
±°°°°°°°°°°°°°°°°°°°°°°°°°°°°°°°°°°°°°°°°°°°°°°°°°°°°°°°°°°°°°°°°°°°°°°°°°°°°°°±
± ±
± CAST: ±
± ±
± Sean Connery...............James Bond ±
± Ursula Andress.............Honey Ryder ±
± Joseph Wiseman.............Dr. No ±
± Jack Lord..................Felix Leiter ±
± Bernard Lee................M ±
± Anthony Dawson.............Professor R. J. Dent ±
± Lois Maxwell...............Miss Moneypenny ±
± ±
±°°°°°°°°°°°°°°°°°°°°°°°°°°°°°°°°°°°°°°°°°°°°°°°°°°°°°°°°°°°°°°°°°°°°°°°°°°°°°°±
± ±
± Please remember to seed ±
± ±
± Seeding is good for the soul ±
± ±
±±±±±±±±±±±±±±±±±±±±±±±±±±±±±±±±±±±±±±±±±±±±±±±±±±±±±±±±±±±±±±±±±±±±±±±±±±±±±±±±

related torrents

Torrent name

health leech seeds Size
 


comments (0)

Main Menu