Comedy

H Timia Gynaika tou Giatrou 2008DVDripXviDEll kitrinopontiki

  • Download 5x Faster
  • Download torrent
  • Direct Download
  • Rate this torrent +  |  -
H Timia Gynaika tou Giatrou 2008DVDripXviDEll kitrinopontiki

Anonymous and Free Direct Download 300GB+


Torrent info

Name:H Timia Gynaika tou Giatrou 2008DVDripXviDEll kitrinopontiki

Total Size: 700.09 MB

Magnet: Magnet Link

Seeds: 0

Leechers: 0

Stream: Watch Online @ Movie4u

Last Updated: 2011-01-02 00:32:20 (Update Now)

Torrent added: 2008-07-14 12:41:34



VPN For Torrents

Torrent Files List


H.Timia.Gynaika.tou.Giatrou.2008[DVDrip]XviD[Ell].kitrinopontiki.avi (Size: 700.09 MB) (Files: 3)

 H.Timia.Gynaika.tou.Giatrou.2008[DVDrip]XviD[Ell].kitrinopontiki.avi

700.02 MB

 H.Timia.Gynaika.tou.Giatrou.2008[DVDrip]XviD[Ell].kitrinopontiki.cover.jpg

63.15 KB

 kitrinopontiki.nfo

5.08 KB
 

Announce URL: http://tracker.torrentbox.com:2710/announce

Torrent description

by kitrinopontiki

Hipothesis : Enas Giatros therapeuei thn gynaika tou agorazontas ths Audi All-road kai bazontas
ena gamia na thn gamisei. Dyo filoi kseskizoun mia visitou. O Varvatos kernaei flokia thn Elena.
Protagonistoun : Giatros apo to E.S.Y. Dimitris apo Kypro, Katerina apo Thessaloniki,
Zafeiris apo Rodo, Mixalis apo Patra, mia noname vizitou, Costas Varvatos apo Athina kai Elena apo Alvania.

General
Complete name : H.Timia.Gynaika.tou.Giatrou.2008[DVDrip]XviD[Ell].kitrinopontiki.avi
Format : AVI
Format/Info : Audio Video Interleave
File size : 700 MiB
Duration : 1h 10mn
Overal bit rate : 1383 Kbps
Writing application : VirtualDubMod 1.5.4.1 (build 2178/release)
Writing library : VirtualDubMod build 2178/release
IAS1 : Greek

Video
Format : MPEG-4 Visual
Format profile : Streaming [email protected]
Format settings, BVOP : Yes
Format settings, QPel : No
Format settings, GMC : 0 warppoint
Format settings, Matrix : Custom
Codec ID : XVID
Codec ID/Hint : XviD
Duration : 1h 10mn
Bit rate : 1278 Kbps
Width : 640 pixels
Height : 368 pixels
Display aspect ratio : 16/9
Frame rate : 25.000 fps
Resolution : 8 bits
Colorimetry : 4:2:0
Scan type : Progressive
Bits/(Pixel*Frame) : 0.217
Stream size : 647 MiB
Writing library : XviD 1.2.-127(dev)
Writing library/Date : UTC 2006-11-01

Audio
Format : MPEG Audio
Format version : Version 1 / Layer 3
Codec ID : 55
Codec ID/Hint : MP3
Duration : 1h 10mn
Bit rate mode : VBR
Bit rate : 92.0 Kbps
Minimum bit rate : 128 Kbps
Channel(s) : 2 channels
Sampling rate : 48.0 KHz
Resolution : 16 bits
Stream size : 46.6 MiB
Writing library : LAME3.97
Encoding settings : ABR

related torrents

Torrent name

health leech seeds Size
 


comments (0)

Main Menu