Asian

Mehbooba 2008 PDVDRIP SUBS

  • Download 5x Faster
  • Download torrent
  • Direct Download
  • Rate this torrent +  |  -
Mehbooba 2008 PDVDRIP SUBS

Download FREE And Anonymously


Torrent info

Name:Mehbooba 2008 PDVDRIP SUBS

Total Size: 698.26 MB

Magnet: Magnet Link

Seeds: 4

Leechers: 16

Stream: Watch Full Movie @ Movie4u

Last Updated: 2010-12-09 04:29:25 (Update Now)

Torrent added: 2008-07-14 09:37:31



VPN For Torrents

Torrent Files List


Mehbooba 2008 ~ 1CD PDVD RIP ~ E-SUP ~ Jay78 ~ Team DUS.avi (Size: 698.26 MB) (Files: 2)

 Mehbooba 2008 ~ 1CD PDVD RIP ~ E-SUP ~ Jay78 ~ Team DUS.avi

698.09 MB

 Mehbooba 2008 ~ 1CD PDVD RIP ~ E-SUP ~ Jay78 ~ Team DUS.srt

169.87 KB
 

Announce URL: http://www.tamiltorrents.net:2710/5wglyzb2nskb6zy7252pcrtk3hnb3tmo/announce

Torrent description

Rip Info
General
Complete name : C:\Documents and Settings\Administrator\Desktop\[ICT] Mehbooba 2008 DVD-5 Pre-DVD E-Subbs [Team ICTV]\Mehbooba 2008 ~ 1CD PDVD RIP ~ E-SUP ~ Jay78 ~ Team DUS\Mehbooba 2008 ~ 1CD PDVD RIP ~ E-SUP ~ Jay78 ~ Team DUS.avi
Format : AVI
Format/Info : Audio Video Interleave
Format profile : OpenDML
File size : 698 MiB
Duration : 2h 43mn
Overal bit rate : 596 Kbps

Video
Format : MPEG-4 Visual
Format profile : Streaming [email protected]
Format settings, BVOP : Yes
Format settings, QPel : No
Format settings, GMC : No warppoints
Format settings, Matrix : Default
Codec ID : XVID
Codec ID/Hint : XviD
Duration : 2h 43mn
Bit rate : 465 Kbps
Width : 640 pixels
Height : 272 pixels
Display aspect ratio : 2.35
Frame rate : 23.976 fps
Resolution : 8 bits
Colorimetry : 4:2:0
Scan type : Progressive
Bits/(Pixel*Frame) : 0.111
Stream size : 544 MiB (78%)
Writing library : XviD 1.2.0.dev47 (UTC 2006-11-01)

Audio
Format : MPEG Audio
Format version : Version 1
Format profile : Layer 3
Codec ID : 55
Codec ID/Hint : MP3
Bit rate mode : Constant
Bit rate : 128 Kbps
Minimum bit rate : 128 Kbps
Channel(s) : 2 channels
Sampling rate : 48.0 KHz
Resolution : 16 bits
Stream size : 150 MiB (21%)
Encoding settings : CBR

related torrents

Torrent name

health leech seeds Size
 


comments (0)

Main Menu

 

script data-cfasync="false" src="//d2ghscazvn398x.cloudfront.net/?cshgd=690275">