Action

Redbelt (2008) h 264 1337x By {Noir}

  • Download 5x Faster
  • Download torrent
  • Direct Download
  • Rate this torrent +  |  -
Redbelt (2008) h 264 1337x By {Noir}

Anonymous and Direct Download 300GB+ free


Torrent info

Name:Redbelt (2008) h 264 1337x By {Noir}

Total Size: 788.22 MB

Magnet: Magnet Link

Seeds: 26

Leechers: 107

Stream: Watch Online @ Movie4u

Last Updated: 2011-01-02 18:43:45 (Update Now)

Torrent added: 2008-07-14 00:34:44




Torrent Files List


Noir.nfo (Size: 788.22 MB) (Files: 3)

 Noir.nfo

3.76 KB

 Redbelt (2008) [h.264] [1337x] By {Noir}.avi

788.21 MB

 Torrent_downloaded_from_Demonoid.com.txt

0.05 KB
 

Announce URL: http://genesis.1337x.org:1337/announce

Torrent description

Redbelt (2008) h 264 1337x By {Noir} preview 0

Screenshots

Redbelt (2008) h 264 1337x By {Noir} preview 1

Redbelt (2008) h 264 1337x By {Noir} preview 2

Redbelt (2008) h 264 1337x By {Noir} preview 3

Redbelt (2008) h 264 1337x By {Noir} preview 4

_____________________________________________________________________________
888b 888 .d88888b. 8888888 8888888b.
8888b 888 d88P" "Y88b 888 888 Y88b
88888b 888 888 888 888 888 888
888Y88b 888 888 888 888 888 d88P
888 Y88b888 888 888 888 8888888P"
888 Y88888 888 888 888 888 T88b
888 Y8888 Y88b. .d88P 888 888 T88b
888 Y888 "Y88888P" 8888888 888 T88b
_____________________________________________________________________________



*******************************************************************************
Redbelt (2008)
*******************************************************************************

-------------------------------------------------------------------------------
General Information
-------------------------------------------------------------------------------
Type : Movie
Format : AVI
Format/Info : Audio Video Interleave
File size : 788 MiB
Duration : 1h 34mn
Genre : Action | Drama
IMDB Link : http://www.imdb.com/title/tt1012804/
Rating : 7.6/10
Source : Dvd Screener NTSC

Video
Format : AVC
Format/Info : Advanced Video Codec
Format profile : [email protected]
Format settings, CABAC : Yes
Format settings, ReFrames : 2 frames
Codec ID : H264
Duration : 1h 34mn
Bit rate : 1025 Kbps
Width : 608 pixels
Height : 336 pixels
Display aspect ratio : 16/9
Frame rate : 23.976 fps
Resolution : 24 bits
Colorimetry : 4:2:0
Scan type : Progressive
Bits/(Pixel*Frame) : 0.209
Stream size : 695 MiB (88%)

Audio
Format : MPEG Audio
Format version : Version 1
Format profile : Layer 3
Codec ID : 55
Codec ID/Hint : MP3
Duration : 1h 34mn
Bit rate mode : Constant
Bit rate : 128 Kbps
Channel(s) : 2 channels
Sampling rate : 48.0 KHz
Resolution : 16 bits
Stream size : 86.8 MiB (11%)
Alignment : Aligned on interleaves
Interleave, duration : 42 ms (1.00 video frame)
Interleave, preload duration : 504 ms
-------------------------------------------------------------------------------
Description
-------------------------------------------------------------------------------
A fateful event leads to a job in the film business for top mixed-martial
arts instructor Mike Terry. Though he refuses to participate in prize bouts,
circumstances conspire to force him to consider entering such a competition.
-------------------------------------------------------------------------------
Post Information
-------------------------------------------------------------------------------
Posted by............: Noir
Posted on............: 7/13/2008

Currently adding my torrents
http://noir.superfundo.org/

Redbelt (2008) h 264 1337x By {Noir} preview 5

Redbelt (2008) h 264 1337x By {Noir} preview 6

Redbelt (2008) h 264 1337x By {Noir} preview 7

related torrents

Torrent name

health leech seeds Size
 


comments (0)

Main Menu