Top Gear

Top Gear S11 E04 2008 07 13 x264 Moto

  • Download 5x Faster
  • Download torrent
  • Direct Download
  • Rate this torrent +  |  -
Top Gear S11 E04 2008 07 13 x264 Moto

Anonymous and Free Direct Download 300GB+


Torrent info

Name:Top Gear S11 E04 2008 07 13 x264 Moto

Total Size: 768.90 MB

Magnet: Magnet Link

Seeds: 0

Leechers: 0

Stream: Watch Online @ Movie4u

Last Updated: 2015-08-31 10:00:57 (Update Now)

Torrent added: 2008-07-13 21:35:19



VPN For Torrents

Torrent Files List


Top.Gear.S11.E04.2008.07.13.x264-Moto.mp4 (Size: 768.90 MB) (Files: 1)

 Top.Gear.S11.E04.2008.07.13.x264-Moto.mp4

768.90 MB
 

tracker

leech seeds
 

Torrent description

Newsreaders Fiona Bruce and Kate Silverton are the Stars in the Reasonably Priced Car, and Jeremy Clarkson tries to prove the Nissan GT-R is faster than the celebrated Bullet Train in a race across Japan with Richard Hammond and James May. Toyota\'s idea of personal transport for the future is tested out and additional glamour is provided by the Alfa Romeo 8C, which takes to the Top Gear track.

Format : MPEG-4
Format profile : Base Media
Codec ID : isom
File size : 769 MiB
Duration : 1h 1mn
Overal bit rate : 1735 Kbps
Encoded date : UTC 2008-07-12 20:56:50
Tagged date : UTC 2008-07-12 20:56:50

Video
Format : AVC
Format/Info : Advanced Video Codec
Format profile : [email protected]
Format settings, CABAC : Yes
Format settings, ReFrames : 3
Codec ID : avc1
Duration : 1h 1mn
Bit rate mode : VBR
Bit rate : 1600 Kbps
Maximum bit rate : 10.0 Mbps
Width : 704 pixels
Height : 400 pixels
Display aspect ratio : 16/9
Frame rate mode : CFR
Frame rate : 25.000 fps
Colorimetry : 4:2:0
Scan type : Progressive
Bits/(Pixel*Frame) : 0.227
Stream size : 709 MiB
Encoded date : UTC 2008-07-12 20:20:15
Tagged date : UTC 2008-07-12 20:57:10

Audio
Format : AAC
Format/Info : Advanced Audio Codec
Format version : Version 4
Format profile : LC
Format settings, SBR : No
Duration : 1h 1mn
Bit rate mode : VBR
Bit rate : 132.3 Kbps
Maximum bit rate : 147 Kbps
Channel(s) : 2 channels
Channel positions : L R
Sampling rate : 48.0 KHz
Resolution : 16 bits
Stream size : 58.2 MiB
Encoded date : UTC 2008-07-12 20:57:08
Tagged date : UTC 2008-07-12 20:57:10

XBOX360: YES
PS3: YES

Please re-download from http://www.motorworld.net/tracker/

related torrents

Torrent name

health leech seeds Size

Top Gear S11 [

0 0 4.16 GB 0
 


comments (0)

Main Menu