Asian

DEENA DVD RiP

  • Download 5x Faster
  • Download torrent
  • Direct Download
  • Rate this torrent +  |  -
DEENA DVD RiP

Anonymous and Direct Download 300GB+ free


Torrent info

Name:DEENA DVD RiP

Total Size: 513.51 MB

Magnet: Magnet Link

Seeds: 0

Leechers: 0

Stream: Watch Online @ Movie4u

Last Updated: 2012-07-16 18:34:13 (Update Now)

Torrent added: 2008-07-13 21:33:38




Torrent Files List


[DVD-RiP] DEENA [ARAVINDU].avi (Size: 513.51 MB) (Files: 1)

 [DVD-RiP] DEENA [ARAVINDU].avi

513.51 MB
 

Announce URL:

Torrent description

...::: Deena :::...



Movie Info
Starring : Ajith, Laila, Balaji, Suresh Gopi, Nagma, Sriman
Director : A.R. Murugadoss
Music : Yuvan Shankar Raja
Language : Tamil
Year : 2001

General Info
Format : AVI
Format/Info : Audio Video Interleave
File size : 514 MiB
Duration : 2h 47mn
Overal bit rate : 429 Kbps

Video Info
Format : MPEG-4 Visual
Codec ID : XVID
Codec ID/Hint : XviD
Duration : 2h 47mn
Bit rate : 297 Kbps
Width : 528 pixels
Height : 256 pixels
Display aspect ratio : 2.063
Frame rate : 23.976 fps
Resolution : 8 bits
Colorimetry : 4:2:0
Scan type : Progressive
Bits/(Pixel*Frame) : 0.092
Stream size : 356 MiB (69%)

Audio Info
Format : MPEG Audio
Codec ID/Hint : MP3
Duration : 2h 47mn
Bit rate mode : Variable
Bit rate : 118 Kbps
Minimum bit rate : 128 Kbps
Channel(s) : 2 channels
Sampling rate : 48.0 KHz
Resolution : 16 bits
Stream size : 142 MiB (28%)

related torrents

Torrent name

health leech seeds Size

Hell Baby DVD-RIP Jaybob

0 0 689.95 MB 0

Belle DVD-RIP Jaybob

0 0 693.95 MB 0

Vengeance DVD-RIP Jaybob

0 0 688.95 MB 0

Her 2014} 720p DVD Rip x264 [KA]

6298 10903 714.04 MB 0
 


comments (0)

Main Menu