Drama

Mi último tango (1960) Sara Montiel (Spanish) avi

  • Download 5x Faster
  • Download torrent
  • Direct Download
  • Rate this torrent +  |  -
Mi último tango (1960) Sara Montiel (Spanish) avi

Free and Direct Download with Usenet.nl 300GB+ free


Torrent info

Name:Mi último tango (1960) Sara Montiel (Spanish) avi

Total Size: 771.90 MB

Magnet: Magnet Link

Seeds: 0

Leechers: 0

Stream: Watch Online @ Movie4u

Last Updated: 0000-00-00 00:00:00 (Update Now)

Torrent added: 2009-01-08 00:34:18





Torrent Files List


Mi último tango (1960) Sara Montiel.avi (Size: 771.90 MB) (Files: 1)

 Mi último tango (1960) Sara Montiel.avi

771.90 MB
 

Announce URL:

Torrent description

Find all my U/L at: http://thepiratebay.org/user/johnefp

NO SUBS
=======

Film based on the tango 'Caminito de gloria'.



Preview:

Director:
Luis César Amadori

Sara Montiel ... Marta Andreu
Maurice Ronet ... Dario Ledesma
Isabel Garcés ... Clarisa
Laura Granados
Milo Quesada


Video
Format : MPEG-4 Visual
Format settings, BVOP : Yes
Format settings, QPel : No
Format settings, GMC : No warppoints
Format settings, Matrix : Default
Muxing mode : Packed bitstream
Codec ID : DX50
Codec ID/Hint : DivX 5
Duration : 1h 57mn
Bit rate : 781 Kbps
Width : 720 pixels
Height : 480 pixels
Display aspect ratio : 1.500
Frame rate : 25.000 fps
Standard : NTSC
Resolution : 24 bits
Colorimetry : 4:2:0
Scan type : Progressive
Bits/(Pixel*Frame) : 0.090
Stream size : 656 MiB (85%)
Title : Video
Writing library : DivX 6.2.5 (UTC 2006-06-16)
Audio
Format : MPEG Audio
Format version : Version 1
Format profile : Layer 3
Codec ID : 55
Codec ID/Hint : MP3
Duration : 1h 57mn
Bit rate mode : Constant
Bit rate : 128 Kbps
Channel(s) : 2 channels
Sampling rate : 48.0 KHz
Resolution : 16 bits
Stream size : 108 MiB (14%)
Alignment : Split accross interleaves
Interleave, duration : 40 ms (1.00 video frame)
Interleave, preload duration : 50 ms
Title : Audio

ENJOY AND SEED

related torrents

Torrent name

health leech seeds Size
 

comments (0)

Main Menu