Movies

Zombieland Ts Xvid Flawl3ss [teamfx Org]

  • Download 5x Faster
  • Download torrent
  • Direct Download
  • Rate this torrent +  |  -
Zombieland Ts Xvid Flawl3ss [teamfx Org]

Anonymous and Free Direct Download 300GB+


Torrent info

Name:Zombieland Ts Xvid Flawl3ss [teamfx Org]

Total Size: 916.83 MB

Magnet: Magnet Link

Seeds: 20

Leechers: 3

Stream: Watch Online @ Movie4u

Last Updated: 2010-08-31 10:47:55 (Update Now)

Torrent added: 2009-10-06 08:15:01



VPN For Torrents

Torrent Files List


 

Announce URL: http://www.teamfx.org/announce.php

Torrent description

Zombielad.TS.XviD.FLAWL3SS

*******************************************************************************



General Information



Format: AVI

Format/Info: Audio Video Interleave

File size: 900 MiB

Duration: 1h 22mn

Overall bit rate: 1 519 Kbps

Writing application: VirtualDubMod 1.5.10.2 (build 2540/release)

Writing library: VirtualDubMod build 2540/release



Video

Format: MPEG-4 Visual

Format profile: Streaming [email protected]

Format settings, BVOP: Yes

Format settings, QPel: No

Format settings, GMC: No warppoints

Format settings, Matrix: Custom

Codec ID: XVID

Codec ID/Hint: XviD

Duration: 1h 22mn

Bit rate: 1 379 Kbps

Width: 672 pixels

Height: 320 pixels

Display aspect ratio: 2.100

Frame rate: 30.000 fps

Resolution: 24 bits

Colorimetry: 4:2:0

Scan type: Progressive

Bits/(Pixel*Frame): 0.214

Stream size: 817 MiB (91%)

Writing library: XviD 1.2.1 (UTC 2008-12-04)



Audio

Format: MPEG Audio

Format version: Version 1

Format profile: Layer 3

Codec ID: 55

Codec ID/Hint: MP3

Duration: 1h 22mn

Bit rate mode: Constant

Bit rate: 128 Kbps

Channel(s): 2 channels

Sampling rate: 44.1 KHz

Resolution: 16 bits

Stream size: 75.8 MiB (9%)

Alignment: Split accross interleaves

Interleave, duration: 33 ms (1.00 video frame)

Interleave, preload duration: 500 ms

Original Video: Thanks to diamond

Original Audio: Imagine thanks for the audio

New Video: Zombielad.TS.XviD.FLAWL3SS

Movie Information: http://www.imdb.com/title/tt1156398/

Language: English

Subtitles: None

Size Of Rip: 900 MIB SINGLE FILE



Release Notes



Genre:

Action | Comedy | Horror

Tagline:

This place is so dead

Plot:

In the horror comedy Zombieland focuses on two men who have found a way to survive a world overrun by zombies



Cast:

Jesse Eisenberg ... Columbus

Woody Harrelson ... Tallahassee

Emma Stone ... Wichita

Abigail Breslin ... Little Rock

Amber Heard ... 406

Bill Murray ... Himself

Derek Graf ... Clown Zombie



Work Done:



First things first.I took the original files from Diamond.thanks for the dvd files m8. and filtered it. colors adjusted everything from luma,gama,contrast,saturation,and chroma and sharpened a bit.Use IMAGINES audio.Thanks guys.I hope you all enjoy from FLAWL3SS