Drama

The Elephant Man 1980 DVDRip XviD

  • Download 5x Faster
  • Download torrent
  • Direct Download
  • Rate this torrent +  |  -
The Elephant Man 1980 DVDRip XviD

Anonymous and Free Direct Download 300GB+


Torrent info

Name:The Elephant Man 1980 DVDRip XviD

Total Size: 820.51 MB

Magnet: Magnet Link

Seeds: 0

Leechers: 0

Stream: Watch Online @ Movie4u

Last Updated: 2011-06-07 22:09:11 (Update Now)

Torrent added: 2009-01-07 20:33:32



VPN For Torrents

Torrent Files List


ELEPHANT (Size: 820.51 MB) (Files: 61)

 ELEPHANT

  Subs

   Subs.rar

752.54 KB

  ELEPHANT.Title1.DVDRip.part01.rar

14.31 MB

  ELEPHANT.Title1.DVDRip.part01.sfv

6.81 KB

  ELEPHANT.Title1.DVDRip.part02.rar

14.31 MB

  ELEPHANT.Title1.DVDRip.part03.rar

14.31 MB

  ELEPHANT.Title1.DVDRip.part04.rar

14.31 MB

  ELEPHANT.Title1.DVDRip.part05.rar

14.31 MB

  ELEPHANT.Title1.DVDRip.part06.rar

14.31 MB

  ELEPHANT.Title1.DVDRip.part07.rar

14.31 MB

  ELEPHANT.Title1.DVDRip.part08.rar

14.31 MB

  ELEPHANT.Title1.DVDRip.part09.rar

14.31 MB

  ELEPHANT.Title1.DVDRip.part10.rar

14.31 MB

  ELEPHANT.Title1.DVDRip.part11.rar

14.31 MB

  ELEPHANT.Title1.DVDRip.part12.rar

14.31 MB

  ELEPHANT.Title1.DVDRip.part13.rar

14.31 MB

  ELEPHANT.Title1.DVDRip.part14.rar

14.31 MB

  ELEPHANT.Title1.DVDRip.part15.rar

14.31 MB

  ELEPHANT.Title1.DVDRip.part16.rar

14.31 MB

  ELEPHANT.Title1.DVDRip.part17.rar

14.31 MB

  ELEPHANT.Title1.DVDRip.part18.rar

14.31 MB

  ELEPHANT.Title1.DVDRip.part19.rar

14.31 MB

  ELEPHANT.Title1.DVDRip.part20.rar

14.31 MB

  ELEPHANT.Title1.DVDRip.part21.rar

14.31 MB

  ELEPHANT.Title1.DVDRip.part22.rar

14.31 MB

  ELEPHANT.Title1.DVDRip.part23.rar

14.31 MB

  ELEPHANT.Title1.DVDRip.part24.rar

14.31 MB

  ELEPHANT.Title1.DVDRip.part25.rar

14.31 MB

  ELEPHANT.Title1.DVDRip.part26.rar

14.31 MB

  ELEPHANT.Title1.DVDRip.part27.rar

14.31 MB

  ELEPHANT.Title1.DVDRip.part28.rar

14.31 MB

  ELEPHANT.Title1.DVDRip.part29.rar

14.31 MB

  ELEPHANT.Title1.DVDRip.part30.rar

14.31 MB

  ELEPHANT.Title1.DVDRip.part31.rar

14.31 MB

  ELEPHANT.Title1.DVDRip.part32.rar

14.31 MB

  ELEPHANT.Title1.DVDRip.part33.rar

14.31 MB

  ELEPHANT.Title1.DVDRip.part34.rar

14.31 MB

  ELEPHANT.Title1.DVDRip.part35.rar

14.31 MB

  ELEPHANT.Title1.DVDRip.part36.rar

14.31 MB

  ELEPHANT.Title1.DVDRip.part37.rar

14.31 MB

  ELEPHANT.Title1.DVDRip.part38.rar

14.31 MB

  ELEPHANT.Title1.DVDRip.part39.rar

14.31 MB

  ELEPHANT.Title1.DVDRip.part40.rar

14.31 MB

  ELEPHANT.Title1.DVDRip.part41.rar

14.31 MB

  ELEPHANT.Title1.DVDRip.part42.rar

14.31 MB

  ELEPHANT.Title1.DVDRip.part43.rar

14.31 MB

  ELEPHANT.Title1.DVDRip.part44.rar

14.31 MB

  ELEPHANT.Title1.DVDRip.part45.rar

14.31 MB

  ELEPHANT.Title1.DVDRip.part46.rar

14.31 MB

  ELEPHANT.Title1.DVDRip.part47.rar

14.31 MB

  ELEPHANT.Title1.DVDRip.part48.rar

14.31 MB

  ELEPHANT.Title1.DVDRip.part49.rar

14.31 MB

  ELEPHANT.Title1.DVDRip.part50.rar

14.31 MB

  ELEPHANT.Title1.DVDRip.part51.rar

14.31 MB

  ELEPHANT.Title1.DVDRip.part52.rar

14.31 MB

  ELEPHANT.Title1.DVDRip.part53.rar

14.31 MB

  ELEPHANT.Title1.DVDRip.part54.rar

14.31 MB

  ELEPHANT.Title1.DVDRip.part55.rar

14.31 MB

  ELEPHANT.Title1.DVDRip.part56.rar

14.31 MB

  ELEPHANT.Title1.DVDRip.part57.rar

14.31 MB

  ELEPHANT.Title1.DVDRip.part58.rar

4.38 MB

  The Elephant Man(1980).nfo

3.00 KB
 

Announce URL: http://tracker.ilovetorrents.com/announce.php

Torrent description

Based on the true story of Joseph Merrick, a 19th-century Englishman afflicted with a disfiguring congenital disease. With the help of kindly Dr. Frederick Treves, Merrick attempts to regain the dignity he lost after years spent as a side-show freak.


Format : AVI
Format/Info : Audio Video Interleave
File size : 820 MiB
Duration : 2h 3mn
Overall bit rate : 928 Kbps
Writing application : Lavf52.17.0

Video
Format : MPEG-4 Visual
Format profile : [email protected]
Format settings, BVOP : No
Format settings, QPel : No
Format settings, GMC : No warppoints
Format settings, Matrix : Default
Codec ID : XVID
Codec ID/Hint : XviD
Duration : 2h 3mn
Bit rate : 788 Kbps
Width : 704 pixels
Height : 298 pixels
Display aspect ratio : 2.35
Frame rate : 23.976 fps
Resolution : 24 bits
Colorimetry : 4:2:0
Scan type : Progressive
Bits/(Pixel*Frame) : 0.157
Stream size : 696 MiB (85%)
Writing library : XviD 1.1.2 (UTC 2006-11-01)

Audio
Format : MPEG Audio
Format version : Version 1
Format profile : Layer 3
Codec ID : 55
Codec ID/Hint : MP3
Duration : 2h 3mn
Bit rate mode : Constant
Bit rate : 128 Kbps
Channel(s) : 2 channels
Sampling rate : 48.0 KHz
Resolution : 16 bits
Stream size : 113 MiB (14%)
Alignment : Aligned on interleaves
Interleave, duration : 24 ms (0.58 video frame)
Writing library : LAME3.97


Link: http://www.imdb.com/title/tt0080678/

related torrents

Torrent name

health leech seeds Size
 


comments (0)

Main Menu