Other

Postales de Leningrado (2007) DVDRip XVid HORIZON lletaif avi

  • Download 5x Faster
  • Download torrent
  • Direct Download
  • Rate this torrent +  |  -
Postales de Leningrado (2007) DVDRip XVid HORIZON lletaif avi

Free and Direct Download with Usenet.nl 300GB+ free


Torrent info

Name:Postales de Leningrado (2007) DVDRip XVid HORIZON lletaif avi

Total Size: 695.37 MB

Magnet: Magnet Link

Seeds: 0

Leechers: 0

Stream: Watch Online @ Movie4u

Last Updated: 2013-02-19 02:31:50 (Update Now)

Torrent added: 2009-01-07 04:36:11





Torrent Files List


Postales.de.Leningrado.(2007).DVDRip.XVid.HORIZON-lletaif.avi (Size: 695.37 MB) (Files: 1)

 Postales.de.Leningrado.(2007).DVDRip.XVid.HORIZON-lletaif.avi

695.37 MB
 

Announce URL:

Torrent description

Group HORIZON proud present:

Postales de Leningrado Aka Postcards from Leningrad

http://www.imagebam.com/image/a5936322903096

Contry: Venezuela

Year: 2007

Director: Mariana Rondón

Cast:

Laureano Olivares - Teo
Greisy Mena - Marcela/Clara/Mercedes
William Cifuentes - Teo (Child)
Haydee Faverola - Grandmother
María Fernanda Ferro - Marta
Ignacio Marquez - Tio Miguel
Oswaldo Hidalgo - Grandfather
Claudia Usubillaga - The Girl

Plot:

During the leftist uprising in the 1960s in Venezuela, a young guerrilla-girl, living in secrecy, gives birth to her first daughter during Mother's Day. Due to that, her photos appear on the newspaper, since that moment they'd have to run away.

Hidden places, false disguises and names are the daily life of THE GIRL, the narrator of the story. Alongside with her cousin (Teo), they re-live the adventures of their guerrilla parents, building up a labrynth with superheroes and strategies, in which nobody knows where the reality (or madness) begins. However, this children's game does not hide the deaths, tortures, denunciations and treasons within the guerrillas.

The kids want to convert themseleves into The Invisible Man, in order to escape from the danger. However, they know that their parents might never comeback and therefore, they'll only receive Postcards from Leningrad.It is Venezuela's official entry for the Best Foreign Language Film of the 80th Annual Academy Awards.

Awards:

- Biarritz International Festival of Latin American Cinema/2007 (FRA), Won Golden Sun
- Cine Ceará - National Cinema Festival/2008 (BRA), Won Feature Film
- São Paulo International Film Festival/2007 (BRA), Won International Jury Award Revelation, from director Mariana Rondón

IMDB: http://www.imdb.com/title/tt1085491/

Release Informations:

Complete name :Postales.de.Leningrado.(2007).DVDRip.XVid.HORIZON-lletaif
Format : AVI
Format/Info : Audio Video Interleave
File size : 695 MiB
Duration : 1h 25mn
Overall bit rate : 1 144 Kbps
Writing application : VirtualDubMod 1.5.10.2 (build 2540/release)
Writing library : VirtualDubMod build 2540/release

Vídeo
Format : MPEG-4 Visual
Format profile : Streaming [email protected]
Format settings, BVOP : Sim
Format settings, QPel : Não
Format settings, GMC : 0 warppoint
Format settings, Matrix : Padrão
Codec ID : XVID
Codec ID/Hint : XviD
Duration : 1h 25mn
Bit rate : 1 038 Kbps
Width : 576 pixel(s)
Height : 320 pixel(s)
Display aspect ratio : 16/9
Frame rate : 23,976 fps
Resolution : 24 bits
Colorimetry : 4:2:0
Scan type : Progressivo
Bits/(Pixel*Frame) : 0.235
Stream size : 631 MiB (91%)
Writing library : XviD 1.1.2 (UTC 2006-11-01)

Áudio
Format : MPEG Audio
Format version : Version 1
Format profile : Layer 3
Codec ID : 55
Codec ID/Hint : MP3
Duration : 1h 25mn
Bit rate mode : Variável
Bit rate : 96,0 Kbps
Channel(s) : 2 canal/canais
Sampling rate : 32,0 KHz
Resolution : 16 bits
Stream size : 58,2 MiB (8%)
Interleave, duration : 36 ms (0.86 video frames)
Interleave, preload duration : 204 ms
Writing library : LAME3.90.
Encoding settings : ABR



Screens:

http://www.imagebam.com/image/aa3b9222903097

http://www.imagebam.com/image/8c81ad22903099

http://www.imagebam.com/image/87b28722903100

http://www.imagebam.com/image/4fb02222903101

related torrents

Torrent name

health leech seeds Size
 

comments (0)

Main Menu