Sci-Fi

2001 A Space Odyssey DVDRIP ZEKTORM

  • Download 5x Faster
  • Download torrent
  • Direct Download
  • Rate this torrent +  |  -
2001 A Space Odyssey DVDRIP ZEKTORM

Anonymous and Free Direct Download 300GB+


Torrent info

Name:2001 A Space Odyssey DVDRIP ZEKTORM

Total Size: 717.87 MB

Magnet: Magnet Link

Seeds: 0

Leechers: 0

Stream: Watch Online @ Movie4u

Last Updated: 2013-09-02 04:33:54 (Update Now)

Torrent added: 2009-01-05 20:34:42



VPN For Torrents

Torrent Files List


2001.A.Space.Odyssey.DVDRIP-ZEKTORM.mp4 (Size: 717.87 MB) (Files: 4)

 2001.A.Space.Odyssey.DVDRIP-ZEKTORM.mp4

699.91 MB

 READ.hlp

12.95 KB

 Subs

  2001.A.Space.Odyssey.DVDRIP-ZEKTORM.idx

295.23 KB

  2001.A.Space.Odyssey.DVDRIP-ZEKTORM.sub

17.66 MB
 

Announce URL:

Torrent description

Title : 2001: A Space Odyssey
Year : 1968
Genre : Adventure | Mystery | Sci-Fi
iMDB Rate : User Rating: 8.4/10 129,794 votes
iMDB URL : http://www.imdb.com/title/tt0062622/
Awards : Won Oscar. Another 10 wins & 6 nominations

Complete name : 2001.A.Space.Odyssey.DVDRIP-ZEKTORM.mp4
Format : MPEG-4
Format profile : Base Media
Codec ID : isom
File size : 700 MiB
Duration : 2h 15mn
Overall bit rate : 720 Kbps
Subtitles : English, Spanish, Portuguese, Hebrew, Polish, Greek,
Czech, Turkish, Hungarian, Hrvatski (Format: VobSub)
Source : DVD PAL
Encoded date : UTC 2009-01-04 06:06:00

Video
Format : AVC
Format/Info : Advanced Video Codec
Format profile : [email protected]
Format settings, CABAC : Yes
Format settings, ReFrames : 16 frames
Codec ID : avc1
Codec ID/Info : Advanced Video Coding
Duration : 2h 15mn
Bit rate mode : Variable
Bit rate : 637 Kbps
Maximum bit rate : 4243 Kbps
Width : 704 pixels
Height : 464 pixels
Display aspect ratio : 2.2
Frame rate mode : Constant
Frame rate : 25.000 fps
Resolution : 24 bits
Colorimetry : 4:2:0
Scan type : Progressive
Bits/(Pixel*Frame) : 0.078
Stream size : 619 MiB (88%)
Title : Video
Writing library : x264 core 60 r900 a9af942

Audio
Format : AAC
Format/Info : Advanced Audio Codec
Format version : Version 4
Format profile : LC
Format settings, SBR : Yes
Format settings, PS : No
Codec ID : 40
Duration : 2h 15mn
Bit rate mode : Variable
Bit rate : 80.6 Kbps
Maximum bit rate : 108 Kbps
Channel(s) : 2 channels
Channel positions : L R
Sampling rate : 48.0 KHz
Resolution : 16 bits
Stream size : 78.3 MiB (11%)
Title : English
Language : English

Notes : Convert to DVD with Nero

related torrents

Torrent name

health leech seeds Size
 


comments (0)

Main Menu