TV - Other

Sabrina Total verhext Staffel 3

  • Download 5x Faster
  • Download torrent
  • Direct Download
  • Rate this torrent +  |  -
Sabrina Total verhext Staffel 3

Free and Direct Download with Usenet.nl 300GB+ free


Torrent info

Name:Sabrina Total verhext Staffel 3

Total Size: 4.28 GB

Magnet: Magnet Link

Seeds: 0

Leechers: 0

Stream: Watch Online @ Movie4u

Last Updated: 2011-04-21 11:29:53 (Update Now)

Torrent added: 2009-01-05 16:59:01





Torrent Files List


Sabrina - DVD Cover.jpg (Size: 4.28 GB) (Files: 27)

 Sabrina - DVD Cover.jpg

4.21 MB

 Sabrina.-.Total.verhext.Season.3.German.FS.aTV.XviD.NFO

5.66 KB

 Sabrina.Total.verhext.S03E01.Aus.zwei.mach.eins.avi

175.01 MB

 Sabrina.Total.verhext.S03E02.Peinlich,.Peinlich.avi

174.80 MB

 Sabrina.Total.verhext.S03E03.Trau.keinem.unter.hundert.avi

175.01 MB

 Sabrina.Total.verhext.S03E04.Schoene.Aussichten.avi

174.87 MB

 Sabrina.Total.verhext.S03E05.Der.runde.Wahnsinn.avi

174.90 MB

 Sabrina.Total.verhext.S03E06.Ein.irres.Fest.avi

175.01 MB

 Sabrina.Total.verhext.S03E07.Jede.Wette.avi

175.02 MB

 Sabrina.Total.verhext.S03E08.Kaiser.Larry.avi

175.01 MB

 Sabrina.Total.verhext.S03E09.Libby.Intern.avi

175.00 MB

 Sabrina.Total.verhext.S03E10.Schoen.haesslich.avi

175.00 MB

 Sabrina.Total.verhext.S03E11.Coole.Weihnachten.avi

175.01 MB

 Sabrina.Total.verhext.S03E12.Ich.bin.Du.avi

175.00 MB

 Sabrina.Total.verhext.S03E13.Cousine.Tsa.Tsa.avi

174.82 MB

 Sabrina.Total.verhext.S03E14.Mrs.Kraft.avi

175.00 MB

 Sabrina.Total.verhext.S03E15.Piraten.im.Haus.avi

175.04 MB

 Sabrina.Total.verhext.S03E16.Lebenszauber.mit.Folgen.avi

175.01 MB

 Sabrina.Total.verhext.S03E17.Salem.an.die.Macht.avi

174.89 MB

 Sabrina.Total.verhext.S03E18.Die.Kunst.des.Schreibens.avi

175.01 MB

 Sabrina.Total.verhext.S03E19.Schlaf.Hexe.Schlaf.avi

175.02 MB

 Sabrina.Total.verhext.S03E20.Gesucht.wird.avi

175.01 MB

 Sabrina.Total.verhext.S03E21.Wie.im.richtigen.Leben.avi

175.01 MB

 Sabrina.Total.verhext.S03E22.Vorsicht.Abkuerzung.avi

174.83 MB

 Sabrina.Total.verhext.S03E23.Traumsehen.avi

175.02 MB

 Sabrina.Total.verhext.S03E24.Ohne.Worte.avi

175.00 MB

 Sabrina.Total.verhext.S03E25.Hexentreffen.avi

175.00 MB
 

Announce URL: http://tracker.publicbt.com/announce

Torrent description

!!GERMAN TRACKER!!


Sabrina - Total verhext Staffel 3

-------------------------

Movie/Serie

Sprache: [X] Deutsch [ ] Englisch [ ] siehe Beschreibung

Video: [ ] HDTV [ ] DVD [X] TV/dTV [ ] TS [ ] Cam [ ] Sonstiges
Audio: [ ] AC3 [ ] DVD [X] TV/dTV [ ] LD [ ] Micro [ ] Sonstiges

Genre: TV-Serie/Comedy/Sitcom

Untertitel: keine

Extras: keine



-------------------------
Beschreibung:

Sabrina Spellman moechte ein ganz normaler Teenager sein, der gerne
Parties feiert, flirtet und einkauft. Als sie am Morgen ihres 16.
Geburtstages die Augen aufschlaegt, ist nichts mehr so wie es war.
Vollkommen verbluefft stellt sie fest, dass sie magische Kraefte in
sich traegt. Ihre beiden Tanten Hilda und Zelda eroefffnen Sabrina,
dass sie eine junge Hexe ist - genau wie sie. Schritt fuer Schritt
weisen die beiden exzentrischen Damen ihre Nichte in das Hexeneinmaleins
ein. Fortan stellt Sabrina in der Schule alles auf den Kopf. Mit einem
Fingerschnippen erweckt sie im Biologie-Unterricht einen Frosch, den
sie eigentlich sezieren soll. Einer boshaften Cheerleader-Konkurrentin
verschmiert sie wie von Zauberhand den Lippenstift ueber das ganze
Gesicht. Doch die Magie hat auch ihre Grenzen, davon kann Sabrinas
sprechender Kater Salem ein Lied singen. In seinem frueheren Leben
war er ein aufstrebender Zauberlehrling. Und so landet Sabrina nicht
selten wegen Missbrauchs ihrer Zauberkuenste vor dem Hexenrat.

-------------------------
Episodenguide:
Sabrina Staffel 3

# Englischer Titel Deutscher Titel
01 It's A Mad Mad Mad Mad Season Opener Aus zwei mach eins
02 Boy Was My Face Red Peinlich, peinlich
03 Suspicious Minds Trau keinem unter hundert
04 The Pom Pom Incident Schoene Aussichten
05 Pancake Madness Der runde Wahnsinn
06 Good Will Haunting Ein irres Fest
07 You Bet Your Family Jede Wette
08 And the Sabrina Goes To... Kaiser Larry
09 Nobody Nose Libby Like Sabrina Nose Libby Libby intern
10 Sabrina and the Beast Schoen haesslich!
11 Christmas Amnesia Coole Weihnachten
12 Whose So-Called Life Is It Anyway? Ich bin du
13 What Price Harvey? Cousine Zsa Zsa
14 Mrs. Kraft Mrs. Kraft
15 Sabrina and the Pirates Piraten im Haus
16 Sabrina the Matchmaker Liebeszauber mit Folgen
17 Salem, the Boy Salem an die Macht!
18 Sabrina, the Teenage Writer Die Kunst des Schreibens
19 The Big Sleep Schlaf, Hexe, schlaf
20 Sabrina's Pen Pal Gesucht wird...
21 Sabrina's Real World Wie im richtigen Leben
22 The Long and Winding Short Cut Vorsicht Abkuerzung!
23 Sabrina the Sandman Traumsehen
24 Slient Movie Ohne Worte
25 The Good, the Bad and the Luau Hexentreffen

-------------------------
Technische Details:
General
Format : AVI
Format/Info : Audio Video Interleave
File size : 175 MiB
Duration : 20mn 58s
Overall bit rate : 1166 Kbps
Writing application : VirtualDubMod 1.5.4.1 (build 2178/release)
Writing library : VirtualDubMod build 2178/release

Video
Format : MPEG-4 Visual
Format profile : Streaming [email protected]
Format settings, BVOP : Yes
Format settings, QPel : No
Format settings, GMC : No warppoints
Format settings, Matrix : Custom
Codec ID : XVID
Codec ID/Hint : XviD
Duration : 20mn 58s
Bit rate : 1043 Kbps
Width : 512 pixels
Height : 384 pixels
Display aspect ratio : 4/3
Frame rate : 25.000 fps
Resolution : 8 bits
Colorimetry : 4:2:0
Scan type : Progressive
Bits/(Pixel*Frame) : 0.212
Stream size : 157 MiB (89)
Writing library : XviD 1.2.0SMP (UTC 2006-01-08)

Audio
Format : MPEG Audio
Format version : Version 1
Format profile : Layer 3
Codec ID : 55
Codec ID/Hint : MP3
Duration : 20mn 58s
Bit rate mode : Variable
Bit rate : 110 Kbps
Minimum bit rate : 128 Kbps
Channel(s) : 2 channels
Sampling rate : 48.0 KHz
Resolution : 16 bits
Stream size : 16.6 MiB (9)
Alignment : Aligned on interleaves
Interleave, duration : 24 ms (0.60 video frame)
Interleave, preload duration : 486 ms
Writing library : LAME3.97b
Encoding settings : ABR

related torrents

Torrent name

health leech seeds Size
 

comments (0)

Main Menu