TV - Other

Sabrina Total verhext Staffel 7

  • Download 5x Faster
  • Download torrent
  • Direct Download
  • Rate this torrent +  |  -
Sabrina Total verhext Staffel 7

Anonymous and Free Direct Download 300GB+


Torrent info

Name:Sabrina Total verhext Staffel 7

Total Size: 3.86 GB

Magnet: Magnet Link

Seeds: 3

Leechers: 1

Stream: Watch Online @ Movie4u

Last Updated: 2010-11-29 00:39:20 (Update Now)

Torrent added: 2009-01-05 16:58:51



VPN For Torrents

Torrent Files List


Sabrina - DVD Cover.jpg (Size: 3.86 GB) (Files: 24)

 Sabrina - DVD Cover.jpg

4.21 MB

 Sabrina.-.Total.verhext.Season.7.German.FS.aTV.XviD.NFO

5.39 KB

 Sabrina.Total.Verhext.S07E01.Auf.Jobsuche.avi

176.26 MB

 Sabrina.Total.Verhext.S07E02.Interview.mit.einem.Hohlkopf.avi

178.27 MB

 Sabrina.Total.Verhext.S07E03.Was.ist.schon.normal.avi

178.21 MB

 Sabrina.Total.Verhext.S07E04.Das.Biest.avi

179.86 MB

 Sabrina.Total.Verhext.S07E05.Die.Ladendiebin.avi

178.14 MB

 Sabrina.Total.Verhext.S07E06.Sabrina.unplugged.avi

177.87 MB

 Sabrina.Total.Verhext.S07E07.Sammelleidenschaft.avi

176.00 MB

 Sabrina.Total.Verhext.S07E08.Avril.Avril.avi

178.14 MB

 Sabrina.Total.Verhext.S07E09.Wiedersehen.in.Miami.avi

196.26 MB

 Sabrina.Total.Verhext.S07E10.Lampenfieber.avi

178.02 MB

 Sabrina.Total.Verhext.S07E11.Luegen.und.Klamotten.avi

176.92 MB

 Sabrina.Total.Verhext.S07E12.Blindes.Vertrauen.avi

177.96 MB

 Sabrina.Total.Verhext.S07E13.Sabrina.im.Wunderland.avi

177.90 MB

 Sabrina.Total.Verhext.S07E14.Perfekt!.avi

178.02 MB

 Sabrina.Total.Verhext.S07E15.Cirque.du.Sabrina.avi

178.01 MB

 Sabrina.Total.Verhext.S07E16.Cyrano.und.Sabrina.avi

178.12 MB

 Sabrina.Total.Verhext.S07E17.Romanzen-Alarm.avi

178.22 MB

 Sabrina.Total.Verhext.S07E18.Ein.boeser.Versprecher.avi

178.21 MB

 Sabrina.Total.Verhext.S07E19.Cinderellas.Maerchenhochzeit.avi

197.74 MB

 Sabrina.Total.Verhext.S07E20.Ein.Fisch.namens.Aaron.avi

178.18 MB

 Sabrina.Total.Verhext.S07E21.Was.Hexen.wuenschen.avi

178.19 MB

 Sabrina.Total.Verhext.S07E22.Seelenverwandte.avi

178.21 MB
 

Announce URL: http://tbtracker.lir.dk/announce.php

Torrent description

!!GERMAN TRACKER!!


Sabrina - Total verhext Staffel 7

-------------------------

Serie

Sprache: [X] Deutsch [ ] Englisch [ ] siehe Beschreibung

Video: [ ] HDTV [ ] DVD [X] TV/dTV [ ] TS [ ] Cam [ ] Sonstiges
Audio: [ ] AC3 [ ] DVD [X] TV/dTV [ ] LD [ ] Micro [ ] Sonstiges

Genre: TV-Serien/Comedy/Sitcom


Untertitel: keine

Extras: keine

-------------------------
Beschreibung:

Sabrina Spellman moechte ein ganz normaler Teenager sein, der gerne
Parties feiert, flirtet und einkauft. Als sie am Morgen ihres 16.
Geburtstages die Augen aufschlaegt, ist nichts mehr so wie es war.
Vollkommen verbluefft stellt sie fest, dass sie magische Kraefte in
sich traegt. Ihre beiden Tanten Hilda und Zelda eroefffnen Sabrina,
dass sie eine junge Hexe ist - genau wie sie. Schritt fuer Schritt
weisen die beiden exzentrischen Damen ihre Nichte in das Hexeneinmaleins
ein. Fortan stellt Sabrina in der Schule alles auf den Kopf. Mit einem
Fingerschnippen erweckt sie im Biologie-Unterricht einen Frosch, den
sie eigentlich sezieren soll. Einer boshaften Cheerleader-Konkurrentin
verschmiert sie wie von Zauberhand den Lippenstift ueber das ganze
Gesicht. Doch die Magie hat auch ihre Grenzen, davon kann Sabrinas
sprechender Kater Salem ein Lied singen. In seinem frueheren Leben
war er ein aufstrebender Zauberlehrling. Und so landet Sabrina nicht
selten wegen Missbrauchs ihrer Zauberkuenste vor dem Hexenrat.

-------------------------
Episodenguide:
Sabrina Staffel 7

# Englischer Titel Deutscher Titel
01 Total Sabrina Live! (2) Auf Jobsuche
02 The Big Head Interview mit einem Hohlkopf
03 Call Me Crazy Was ist schon normal?
04 Shift Happens Das Biest
05 Free Sabrina Die Ladendiebin
06 Sabrina Unplugged Sabrina unplugged
07 Witch Way Out Sammelleidenschaft
08 Bada-Ping! Avril, Avril
09 It's a Hot, Hot, Hot, Hot Christmas Wiedersehen in Miami
10 Ping, Ping A Song Lampenfieber
11 The Lyin', the Witch and the Wardrobe Luegen und Klamotten
12 In Sabrina We Trust Blindes Vertrauen
13 Sabrina in Wonderland Sabrina im Wunderland
14 Present Perfect Perfekt!
15 Cirque du Sabrina Cirque du Sabrina
16 Getting To Nose You Cyrano und Sabrina
17 Romance Looming Romanzen-Alarm
18 Spellmanian Slip Ein boeser Versprecher
19 You Slay Me Cinderellas Maerchenhochzeit
20 A Fish Tale Ein Fisch namens Aaron
21 What a Witch Wants (1) Was Hexen wuenschen
22 Soul Mates (2) Seelenverwandte

-------------------------
Technische Details:
General
Format : AVI
Format/Info : Audio Video Interleave
File size : 176 MiB
Duration : 21mn 7s
Overall bit rate : 1166 Kbps
Writing application : VirtualDubMod 1.5.10.2
+ BXAudHdrFix (build 2547/release)
Writing library : VirtualDubMod build 2547/release

Video
Format : MPEG-4 Visual
Format profile : Streaming [email protected]
Format settings, BVOP : Yes
Format settings, QPel : No
Format settings, GMC : No warppoints
Format settings, Matrix : Default
Muxing mode : Packet Bitstream
Codec ID : XVID
Codec ID/Hint : XviD
Duration : 21mn 7s
Bit rate : 1029 Kbps
Width : 512 pixels
Height : 384 pixels
Display aspect ratio : 4/3
Frame rate : 25.001 fps
Original frame rate : 25.004 fps
Resolution : 8 bits
Colorimetry : 4:2:0
Scan type : Progressive
Bits/(Pixel*Frame) : 0.209
Stream size : 155 MiB (88)
Writing library : XviD 1.1.0 (UTC 2005-11-22)

Audio
Format : MPEG Audio
Format version : Version 1
Format profile : Layer 3
Codec ID : 55
Codec ID/Hint : MP3
Duration : 21mn 7s
Bit rate mode : Constant
Bit rate : 128 Kbps
Channel(s) : 2 channels
Sampling rate : 48.0 KHz
Resolution : 16 bits
Stream size : 19.3 MiB (11)
Alignment : Split accross interleaves
Interleave, duration : 40 ms (1.00 video frame)
Interleave, preload duration : 500 ms

related torrents

Torrent name

health leech seeds Size
 


comments (0)

Main Menu