Fantasy

Angel Heart 1987 DVDRip XviD

  • Download 5x Faster
  • Download torrent
  • Direct Download
  • Rate this torrent +  |  -
Angel Heart 1987 DVDRip XviD

Free and Direct Download with Usenet 300GB+ free


Torrent info

Name:Angel Heart 1987 DVDRip XviD

Total Size: 804.54 MB

Magnet: Magnet Link

Seeds: 0

Leechers: 0

Stream: Watch Online @ Movie4u

Last Updated: 2015-09-05 13:01:52 (Update Now)

Torrent added: 2009-01-05 00:36:28




Torrent Files List


Subs (Size: 804.54 MB) (Files: 60)

 Subs

  Subs.rar

684.79 KB

 Angel Heart(1987).nfo

3.02 KB

 Angel Heart(1987).sfv

6.24 KB

 Angel Heart.DVDRip.part01.rar

14.31 MB

 Angel Heart.DVDRip.part02.rar

14.31 MB

 Angel Heart.DVDRip.part03.rar

14.31 MB

 Angel Heart.DVDRip.part04.rar

14.31 MB

 Angel Heart.DVDRip.part05.rar

14.31 MB

 Angel Heart.DVDRip.part06.rar

14.31 MB

 Angel Heart.DVDRip.part07.rar

14.31 MB

 Angel Heart.DVDRip.part08.rar

14.31 MB

 Angel Heart.DVDRip.part09.rar

14.31 MB

 Angel Heart.DVDRip.part10.rar

14.31 MB

 Angel Heart.DVDRip.part11.rar

14.31 MB

 Angel Heart.DVDRip.part12.rar

14.31 MB

 Angel Heart.DVDRip.part13.rar

14.31 MB

 Angel Heart.DVDRip.part14.rar

14.31 MB

 Angel Heart.DVDRip.part15.rar

14.31 MB

 Angel Heart.DVDRip.part16.rar

14.31 MB

 Angel Heart.DVDRip.part17.rar

14.31 MB

 Angel Heart.DVDRip.part18.rar

14.31 MB

 Angel Heart.DVDRip.part19.rar

14.31 MB

 Angel Heart.DVDRip.part20.rar

14.31 MB

 Angel Heart.DVDRip.part21.rar

14.31 MB

 Angel Heart.DVDRip.part22.rar

14.31 MB

 Angel Heart.DVDRip.part23.rar

14.31 MB

 Angel Heart.DVDRip.part24.rar

14.31 MB

 Angel Heart.DVDRip.part25.rar

14.31 MB

 Angel Heart.DVDRip.part26.rar

14.31 MB

 Angel Heart.DVDRip.part27.rar

14.31 MB

 Angel Heart.DVDRip.part28.rar

14.31 MB

 Angel Heart.DVDRip.part29.rar

14.31 MB

 Angel Heart.DVDRip.part30.rar

14.31 MB

 Angel Heart.DVDRip.part31.rar

14.31 MB

 Angel Heart.DVDRip.part32.rar

14.31 MB

 Angel Heart.DVDRip.part33.rar

14.31 MB

 Angel Heart.DVDRip.part34.rar

14.31 MB

 Angel Heart.DVDRip.part35.rar

14.31 MB

 Angel Heart.DVDRip.part36.rar

14.31 MB

 Angel Heart.DVDRip.part37.rar

14.31 MB

 Angel Heart.DVDRip.part38.rar

14.31 MB

 Angel Heart.DVDRip.part39.rar

14.31 MB

 Angel Heart.DVDRip.part40.rar

14.31 MB

 Angel Heart.DVDRip.part41.rar

14.31 MB

 Angel Heart.DVDRip.part42.rar

14.31 MB

 Angel Heart.DVDRip.part43.rar

14.31 MB

 Angel Heart.DVDRip.part44.rar

14.31 MB

 Angel Heart.DVDRip.part45.rar

14.31 MB

 Angel Heart.DVDRip.part46.rar

14.31 MB

 Angel Heart.DVDRip.part47.rar

14.31 MB

 Angel Heart.DVDRip.part48.rar

14.31 MB

 Angel Heart.DVDRip.part49.rar

14.31 MB

 Angel Heart.DVDRip.part50.rar

14.31 MB

 Angel Heart.DVDRip.part51.rar

14.31 MB

 Angel Heart.DVDRip.part52.rar

14.31 MB

 Angel Heart.DVDRip.part53.rar

14.31 MB

 Angel Heart.DVDRip.part54.rar

14.31 MB

 Angel Heart.DVDRip.part55.rar

14.31 MB

 Angel Heart.DVDRip.part56.rar

14.31 MB

 Angel Heart.DVDRip.part57.rar

2.78 MB
 

tracker

leech seeds
 

Torrent description

Harry Angel has a new case, to find a man called Johnny Favourite. Except things aren't quite that simple, and Johnny doesn't want to be found. Let's just say that, amongst the period detail and beautiful scenery, it all gets really, really nasty.


Format : AVI
Format/Info : Audio Video Interleave
File size : 804 MiB
Duration : 1h 48mn
Overall bit rate : 1 038 Kbps
Writing application : Lavf52.17.0

Video
Format : MPEG-4 Visual
Format profile : [email protected]
Format settings, BVOP : No
Format settings, QPel : No
Format settings, GMC : No warppoints
Format settings, Matrix : Default
Codec ID : XVID
Codec ID/Hint : XviD
Duration : 1h 48mn
Bit rate : 897 Kbps
Width : 704 pixels
Height : 388 pixels
Display aspect ratio : 16/9
Frame rate : 25.000 fps
Resolution : 24 bits
Colorimetry : 4:2:0
Scan type : Progressive
Bits/(Pixel*Frame) : 0.131
Stream size : 695 MiB (86%)
Writing library : XviD 1.1.2 (UTC 2006-11-01)

Audio
Format : MPEG Audio
Format version : Version 1
Format profile : Layer 3
Codec ID : 55
Codec ID/Hint : MP3
Duration : 1h 48mn
Bit rate mode : Constant
Bit rate : 128 Kbps
Channel(s) : 2 channels
Sampling rate : 48.0 KHz
Resolution : 16 bits
Stream size : 99.2 MiB (12%)
Alignment : Aligned on interleaves
Interleave, duration : 24 ms (0.60 video frame)
Writing library : LAME3.97


Link: http://www.imdb.com/title/tt0092563/

related torrents

Torrent name

health leech seeds Size

Angel Heart (1987)

3 7 800.30 MB 0
 

comments (0)

Main Menu