Comedy

Fast Times At Ridgemont High 1982 DVDRip XviD

  • Download 5x Faster
  • Download torrent
  • Direct Download
  • Rate this torrent +  |  -
Fast Times At Ridgemont High 1982 DVDRip XviD

Free and Direct Download with Usenet.nl 300GB+ free


Torrent info

Name:Fast Times At Ridgemont High 1982 DVDRip XviD

Total Size: 709.84 MB

Magnet: Magnet Link

Seeds: 0

Leechers: 1

Stream: Watch Online @ Movie4u

Last Updated: 2016-02-01 09:44:09 (Update Now)

Torrent added: 2009-01-05 00:36:08





Torrent Files List


Subs (Size: 709.84 MB) (Files: 54)

 Subs

  Fast Times.DVDRip.idx

60.41 KB

  Fast Times.DVDRip.sub

4.77 MB

 Fast Times At Ridgemont High(1982).nfo

3.02 KB

 Fast Times At Ridgemont High(1982).sfv

5.57 KB

 Fast Times.DVDRip.part01.rar

14.31 MB

 Fast Times.DVDRip.part02.rar

14.31 MB

 Fast Times.DVDRip.part03.rar

14.31 MB

 Fast Times.DVDRip.part04.rar

14.31 MB

 Fast Times.DVDRip.part05.rar

14.31 MB

 Fast Times.DVDRip.part06.rar

14.31 MB

 Fast Times.DVDRip.part07.rar

14.31 MB

 Fast Times.DVDRip.part08.rar

14.31 MB

 Fast Times.DVDRip.part09.rar

14.31 MB

 Fast Times.DVDRip.part10.rar

14.31 MB

 Fast Times.DVDRip.part11.rar

14.31 MB

 Fast Times.DVDRip.part12.rar

14.31 MB

 Fast Times.DVDRip.part13.rar

14.31 MB

 Fast Times.DVDRip.part14.rar

14.31 MB

 Fast Times.DVDRip.part15.rar

14.31 MB

 Fast Times.DVDRip.part16.rar

14.31 MB

 Fast Times.DVDRip.part17.rar

14.31 MB

 Fast Times.DVDRip.part18.rar

14.31 MB

 Fast Times.DVDRip.part19.rar

14.31 MB

 Fast Times.DVDRip.part20.rar

14.31 MB

 Fast Times.DVDRip.part21.rar

14.31 MB

 Fast Times.DVDRip.part22.rar

14.31 MB

 Fast Times.DVDRip.part23.rar

14.31 MB

 Fast Times.DVDRip.part24.rar

14.31 MB

 Fast Times.DVDRip.part25.rar

14.31 MB

 Fast Times.DVDRip.part26.rar

14.31 MB

 Fast Times.DVDRip.part27.rar

14.31 MB

 Fast Times.DVDRip.part28.rar

14.31 MB

 Fast Times.DVDRip.part29.rar

14.31 MB

 Fast Times.DVDRip.part30.rar

14.31 MB

 Fast Times.DVDRip.part31.rar

14.31 MB

 Fast Times.DVDRip.part32.rar

14.31 MB

 Fast Times.DVDRip.part33.rar

14.31 MB

 Fast Times.DVDRip.part34.rar

14.31 MB

 Fast Times.DVDRip.part35.rar

14.31 MB

 Fast Times.DVDRip.part36.rar

14.31 MB

 Fast Times.DVDRip.part37.rar

14.31 MB

 Fast Times.DVDRip.part38.rar

14.31 MB

 Fast Times.DVDRip.part39.rar

14.31 MB

 Fast Times.DVDRip.part40.rar

14.31 MB

 Fast Times.DVDRip.part41.rar

14.31 MB

 Fast Times.DVDRip.part42.rar

14.31 MB

 Fast Times.DVDRip.part43.rar

14.31 MB

 Fast Times.DVDRip.part44.rar

14.31 MB

 Fast Times.DVDRip.part45.rar

14.31 MB

 Fast Times.DVDRip.part46.rar

14.31 MB

 Fast Times.DVDRip.part47.rar

14.31 MB

 Fast Times.DVDRip.part48.rar

14.31 MB

 Fast Times.DVDRip.part49.rar

14.31 MB

 Fast Times.DVDRip.part50.rar

4.05 MB
 

tracker

leech seeds
 

Torrent description

Follows a group of high school students growing up in southern California, based on the real-life adventures chronicled by Cameron Crowe. Stacy Hamilton and Mark Ratner are looking for a love interest, and are helped along by their older classmates, Linda Barrett and Mike Damone, respectively. The center of the film is held by Jeff Spicoli, a perpetually stoned surfer dude who faces off with the resolute Mr. Hand, who is convinced that everyone is on dope.


Format : AVI
Format/Info : Audio Video Interleave
File size : 705 MiB
Duration : 1h 29mn
Overall bit rate : 1 099 Kbps
Writing application : Lavf52.17.0

Video
Format : MPEG-4 Visual
Format profile : [email protected]
Format settings, BVOP : No
Format settings, QPel : No
Format settings, GMC : No warppoints
Format settings, Matrix : Default
Codec ID : XVID
Codec ID/Hint : XviD
Duration : 1h 29mn
Bit rate : 959 Kbps
Width : 704 pixels
Height : 400 pixels
Display aspect ratio : 16/9
Frame rate : 23.976 fps
Resolution : 24 bits
Colorimetry : 4:2:0
Scan type : Progressive
Bits/(Pixel*Frame) : 0.142
Stream size : 615 MiB (87%)
Writing library : XviD 1.1.2 (UTC 2006-11-01)

Audio
Format : MPEG Audio
Format version : Version 1
Format profile : Layer 3
Codec ID : 55
Codec ID/Hint : MP3
Duration : 1h 29mn
Bit rate mode : Constant
Bit rate : 128 Kbps
Channel(s) : 2 channels
Sampling rate : 48.0 KHz
Resolution : 16 bits
Stream size : 82.1 MiB (12%)
Alignment : Aligned on interleaves
Interleave, duration : 24 ms (0.58 video frame)
Writing library : LAME3.97


Link: http://www.imdb.com/title/tt0083929/

related torrents

Torrent name

health leech seeds Size
 

comments (0)

Main Menu