Other

The Outsiders The Complete Novel 1983 DVDRip XviD

  • Download 5x Faster
  • Download torrent
  • Direct Download
  • Rate this torrent +  |  -
The Outsiders The Complete Novel 1983 DVDRip XviD

Anonymous and Direct Download 300GB+ free


Torrent info

Name:The Outsiders The Complete Novel 1983 DVDRip XviD

Total Size: 707.55 MB

Magnet: Magnet Link

Seeds: 0

Leechers: 1

Stream: Watch Online @ Movie4u

Last Updated: 2011-05-01 17:34:58 (Update Now)

Torrent added: 2009-01-05 00:36:05




Torrent Files List


Subs (Size: 707.55 MB) (Files: 53)

 Subs

  Subs.rar

1.48 MB

 The Outsiders - The Complete Novel(1983; 2005).nfo

3.04 KB

 The Outsiders - The Complete Novel(1983; 2005).sfv

7.62 KB

 The Outsiders.The Complete Novel.DVDRip.part01.rar

14.31 MB

 The Outsiders.The Complete Novel.DVDRip.part02.rar

14.31 MB

 The Outsiders.The Complete Novel.DVDRip.part03.rar

14.31 MB

 The Outsiders.The Complete Novel.DVDRip.part04.rar

14.31 MB

 The Outsiders.The Complete Novel.DVDRip.part05.rar

14.31 MB

 The Outsiders.The Complete Novel.DVDRip.part06.rar

14.31 MB

 The Outsiders.The Complete Novel.DVDRip.part07.rar

14.31 MB

 The Outsiders.The Complete Novel.DVDRip.part08.rar

14.31 MB

 The Outsiders.The Complete Novel.DVDRip.part09.rar

14.31 MB

 The Outsiders.The Complete Novel.DVDRip.part10.rar

14.31 MB

 The Outsiders.The Complete Novel.DVDRip.part11.rar

14.31 MB

 The Outsiders.The Complete Novel.DVDRip.part12.rar

14.31 MB

 The Outsiders.The Complete Novel.DVDRip.part13.rar

14.31 MB

 The Outsiders.The Complete Novel.DVDRip.part14.rar

14.31 MB

 The Outsiders.The Complete Novel.DVDRip.part15.rar

14.31 MB

 The Outsiders.The Complete Novel.DVDRip.part16.rar

14.31 MB

 The Outsiders.The Complete Novel.DVDRip.part17.rar

14.31 MB

 The Outsiders.The Complete Novel.DVDRip.part18.rar

14.31 MB

 The Outsiders.The Complete Novel.DVDRip.part19.rar

14.31 MB

 The Outsiders.The Complete Novel.DVDRip.part20.rar

14.31 MB

 The Outsiders.The Complete Novel.DVDRip.part21.rar

14.31 MB

 The Outsiders.The Complete Novel.DVDRip.part22.rar

14.31 MB

 The Outsiders.The Complete Novel.DVDRip.part23.rar

14.31 MB

 The Outsiders.The Complete Novel.DVDRip.part24.rar

14.31 MB

 The Outsiders.The Complete Novel.DVDRip.part25.rar

14.31 MB

 The Outsiders.The Complete Novel.DVDRip.part26.rar

14.31 MB

 The Outsiders.The Complete Novel.DVDRip.part27.rar

14.31 MB

 The Outsiders.The Complete Novel.DVDRip.part28.rar

14.31 MB

 The Outsiders.The Complete Novel.DVDRip.part29.rar

14.31 MB

 The Outsiders.The Complete Novel.DVDRip.part30.rar

14.31 MB

 The Outsiders.The Complete Novel.DVDRip.part31.rar

14.31 MB

 The Outsiders.The Complete Novel.DVDRip.part32.rar

14.31 MB

 The Outsiders.The Complete Novel.DVDRip.part33.rar

14.31 MB

 The Outsiders.The Complete Novel.DVDRip.part34.rar

14.31 MB

 The Outsiders.The Complete Novel.DVDRip.part35.rar

14.31 MB

 The Outsiders.The Complete Novel.DVDRip.part36.rar

14.31 MB

 The Outsiders.The Complete Novel.DVDRip.part37.rar

14.31 MB

 The Outsiders.The Complete Novel.DVDRip.part38.rar

14.31 MB

 The Outsiders.The Complete Novel.DVDRip.part39.rar

14.31 MB

 The Outsiders.The Complete Novel.DVDRip.part40.rar

14.31 MB

 The Outsiders.The Complete Novel.DVDRip.part41.rar

14.31 MB

 The Outsiders.The Complete Novel.DVDRip.part42.rar

14.31 MB

 The Outsiders.The Complete Novel.DVDRip.part43.rar

14.31 MB

 The Outsiders.The Complete Novel.DVDRip.part44.rar

14.31 MB

 The Outsiders.The Complete Novel.DVDRip.part45.rar

14.31 MB

 The Outsiders.The Complete Novel.DVDRip.part46.rar

14.31 MB

 The Outsiders.The Complete Novel.DVDRip.part47.rar

14.31 MB

 The Outsiders.The Complete Novel.DVDRip.part48.rar

14.31 MB

 The Outsiders.The Complete Novel.DVDRip.part49.rar

14.31 MB

 The Outsiders.The Complete Novel.DVDRip.part50.rar

5.11 MB
 

Announce URL: http://tracker.publicbt.com/announce

Torrent description

Based on the S.E. Hinton novel of the same name. The tension between two groups: The Greasers and The Socials "Socs" puts Ponyboy Curtis (Howell) and his best friend Johnny Cade (Macchio) in a bad spot. One night at the movies, Ponyboy and Johnny fall in love with Sherri "Cherry" Valance (Lane) and Marcia (Meyrink) once they get Dally Winston (Dillon), the toughest and meanest of the Greasers to stop attempting to "score" Cherry and Marcia. What Johnny and Ponyboy don't know is that Cherry and Marcia are girls for the snobbish, popular, and rich group, the Socs. Once Johnny kills Bob Sheldon (Garrett), the toughest and meanest member of the Socs, this begins as the Socs demand a rumble against the Greasers.



Format : AVI
Format/Info : Audio Video Interleave
File size : 706 MiB
Duration : 1h 54mn
Overall bit rate : 862 Kbps
Writing application : Lavf52.17.0

Video
Format : MPEG-4 Visual
Format profile : [email protected]
Format settings, BVOP : No
Format settings, QPel : No
Format settings, GMC : No warppoints
Format settings, Matrix : Default
Codec ID : XVID
Codec ID/Hint : XviD
Duration : 1h 54mn
Bit rate : 721 Kbps
Width : 704 pixels
Height : 296 pixels
Display aspect ratio : 2.35
Frame rate : 23.976 fps
Resolution : 24 bits
Colorimetry : 4:2:0
Scan type : Progressive
Bits/(Pixel*Frame) : 0.144
Stream size : 591 MiB (84%)
Writing library : XviD 1.1.2 (UTC 2006-11-01)

Audio
Format : MPEG Audio
Format version : Version 1
Format profile : Layer 3
Codec ID : 55
Codec ID/Hint : MP3
Duration : 1h 54mn
Bit rate mode : Constant
Bit rate : 128 Kbps
Channel(s) : 2 channels
Sampling rate : 48.0 KHz
Resolution : 16 bits
Stream size : 105 MiB (15%)
Alignment : Aligned on interleaves
Interleave, duration : 24 ms (0.58 video frame)
Writing library : LAME3.97


Link: http://www.imdb.com/title/tt0086066/

related torrents

Torrent name

health leech seeds Size
 


comments (0)

Main Menu