Action

The Thing 1982 DVDRIP ZEKTORM

  • Download 5x Faster
  • Download torrent
  • Direct Download
  • Rate this torrent +  |  -
The Thing 1982 DVDRIP ZEKTORM

Free and Direct Download with Usenet 300GB+ free


Torrent info

Name:The Thing 1982 DVDRIP ZEKTORM

Total Size: 706.86 MB

Magnet: Magnet Link

Seeds: 0

Leechers: 0

Stream: Watch Online @ Movie4u

Last Updated: 2015-04-20 02:31:13 (Update Now)

Torrent added: 2009-08-19 00:00:00




Torrent Files List


READ.hlp (Size: 706.86 MB) (Files: 4)

 READ.hlp

12.79 KB

 Subs

  The.Thing.1982.DVDRIP-ZEKTORM.idx

93.28 KB

  The.Thing.1982.DVDRIP-ZEKTORM.sub

6.80 MB

 The.Thing.1982.DVDRIP-ZEKTORM.mp4

699.96 MB
 

tracker

leech seeds
 

Torrent description

Title : The Thing
Year : 1982
Genre : Horror | Mystery | Sci-Fi | Thriller
iMDB Rate : User Rating: 8.1/10 57,463 votes
iMDB URL : http://www.imdb.com/title/tt0084787
Awards : 3 nominations

Complete name : The.Thing.1982.DVDRIP-ZEKTORM.mp4
Format : MPEG-4
Format profile : Base Media
Codec ID : isom
File size : 700 MiB
Duration : 1h 48mn
Overall bit rate : 900 Kbps
Subtitles : English, Spanish, French (Format: VobSub)
Source : DVD NTSC
Encoded date : UTC 2009-01-02 02:15:23

Video
Format : AVC
Format/Info : Advanced Video Codec
Format profile : [email protected]
Format settings, CABAC : Yes
Format settings, ReFrames : 10 frames
Codec ID : avc1
Codec ID/Info : Advanced Video Coding
Duration : 1h 48mn
Bit rate mode : Variable
Bit rate : 814 Kbps
Maximum bit rate : 4386 Kbps
Width : 720 pixels
Height : 352 pixels
Display aspect ratio : 2.479
Frame rate mode : Constant
Frame rate : 23.976 fps
Resolution : 24 bits
Colorimetry : 4:2:0
Scan type : Progressive
Bits/(Pixel*Frame) : 0.134
Stream size : 633 MiB (90%)
Title : Video
Writing library : x264 core 60 r900 a9af942

Audio
Format : AAC
Format/Info : Advanced Audio Codec
Format version : Version 4
Format profile : LC
Format settings, SBR : Yes
Format settings, PS : No
Codec ID : 40
Duration : 1h 48mn
Bit rate mode : Variable
Bit rate : 83.5 Kbps
Maximum bit rate : 111 Kbps
Channel(s) : 2 channels
Channel positions : L R
Sampling rate : 48.0 KHz
Resolution : 16 bits
Stream size : 64.9 MiB (9%)
Title : English
Language : English

Notes : Convert to DVD with Nero

related torrents

Torrent name

health leech seeds Size
 

comments (0)

Main Menu