Sci-Fi

The Fly (1958) DVDRip (kubura)

  • Download 5x Faster
  • Download torrent
  • Direct Download
  • Rate this torrent +  |  -
The Fly (1958) DVDRip (kubura)

Free and Direct Download with Usenet.nl 300GB+ free


Torrent info

Name:The Fly (1958) DVDRip (kubura)

Total Size: 700.93 MB

Magnet: Magnet Link

Seeds: 3

Leechers: 2

Stream: Watch Online @ Movie4u

Last Updated: 0000-00-00 00:00:00 (Update Now)

Torrent added: 2009-01-03 11:49:50





Torrent Files List


The Fly (1958).avi (Size: 700.93 MB) (Files: 4)

 The Fly (1958).avi

700.87 MB

 The Fly (1958).nfo

3.21 KB

 The Fly (1958).srt

63.04 KB

 Torrent downloaded from Demonoid.com.txt

0.05 KB
 

Announce URL: http://inferno.demonoid.com:3403/announce

Torrent description

*The Fly (1958)*
--------------
User Rating:
7.0/10
Director:
Kurt Neumann
Writers:
George Langelaan (story)
James Clavell (writer)
Genre:
Horror | Mystery | Sci-Fi

Tagline:
If she looked upon the horror her husband had become...
she would scream for the rest of her life!

Plot:
A scientist has a horrific accident when he tries
to use his newly invented teleportation device.
-----------------------------------------------------------------------------------
In Montreal, the industrial François Delambre (Vincent Price)
is called late night by his
sister-in-law Helene Delambre (Patricia Owens).
She tells him that she has just killed her beloved husband Andre
Delambre (Al Hedison), using the press of their plant to press his
head and left hand. François calls his acquaintance, Inspector Charas
(Herbert Marshall), and later the reluctant Helene is convinced to tell
them what happened. She explains that Andre had invented a matter transportation
apparatus, and while experimenting with himself, a
fly entered the chamber, exchanging one hand and the head with him
after the transference.
-----------------------------------------------------------------------------------
General:
-------
Complete name : The Fly (1958)
Format : AVI
Format/Info : Audio Video Interleave
File size : 701 MiB
Duration : 1h 29mn
Overall bit rate : 1 092 Kbps
Writing library : VirtualDub build 30080/release

Video
Format : MPEG-4 Visual
Format profile : Streaming [email protected]
Format settings, BVOP : Yes
Format settings, QPel : No
Format settings, GMC : No warppoints
Format settings, Matrix : Default
Muxing mode : Packed bitstream
Codec ID : DX50
Codec ID/Hint : DivX 5
Duration : 1h 29mn
Bit rate : 954 Kbps
Width : 640 pixels
Height : 272 pixels
Display aspect ratio : 2.35
Frame rate : 25.000 fps
Resolution : 24 bits
Colorimetry : 4:2:0
Scan type : Progressive
Bits/(Pixel*Frame) : 0.219
Stream size : 612 MiB (87%)
Writing library : XviD 1.1.2

Audio
Format : MPEG Audio
Format version : Version 1
Format profile : Layer 3
Codec ID : 55
Codec ID/Hint : MP3
Duration : 1h 29mn
Bit rate mode : Constant
Bit rate : 128 Kbps
Channel(s) : 2 channels
Sampling rate : 48.0 KHz
Resolution : 16 bits
Stream size : 82.2 MiB (12%)
Alignment : Split accross interleaves
Interleave, duration : 40 ms (1.00 video frame)
Interleave, preload duration : 500 ms


related torrents

Torrent name

health leech seeds Size

The Fly (1958)

0 0 2.00 GB 0

The Fly (1958)

0 4 2.00 GB 0
 

comments (0)

Main Menu