Movies

Surrogates (2009) Ts Xvid vish

  • Download 5x Faster
  • Download torrent
  • Direct Download
  • Rate this torrent +  |  -
Surrogates (2009) Ts Xvid vish

Anonymous and Direct Download 300GB+ free


Torrent info

Name:Surrogates (2009) Ts Xvid vish

Total Size: 810.46 MB

Magnet: Magnet Link

Seeds: 0

Leechers: 38

Stream: Watch Online @ Movie4u

Last Updated: 2010-08-25 16:44:10 (Update Now)

Torrent added: 2009-10-03 19:00:38




Torrent Files List


 

Announce URL: http://tracker.thepiratebay.org/announce

Torrent description

===================================================================================
===================================================================================
==========================SURROGATES XVID-BY VISH==================================
===================================================================================
===================================================================================

======RELEASE INFORMATION=========

Directed by :Jonathan Mostow
Starring :Bruce WillisRadha MitchellRosamund PikeVing RhamesJames CromwellMichael Cudlitz
Release Date : 25 September 2009
Genres :ActionSci-FiThriller
Region :USA
Language :English

---------------------------------------------------------------------------------
---------------------------------------------------------------------------------
In the future humans live in isolation and all interaction is done through robots that they control called “surrogates”

When a Surrogate is killed and its death causes the person running the surrogate to die Bruce Willis is a cop who tries to figure out how this happened.


Bruce Willis stars as Tom Greer a Cop who is trying to figure out how by killing a surrogate could the operator of the surrogate die as well. His surrogate is then destroyed and he must leave his apartment for the first time in a long time and be a detective in the real world as himself.

---------------------------------------------------------------------------------
FOR MORE INFO ABOUT A MOVIE GO TO http://www.imdb.com/title/tt0986263/
---------------------------------------------------------------------------------

=================================================================================
=================================================================================


============TORRENT INFORMATION============




Format : AVI
Format/Info : Audio Video Interleave
File size : 810 MiB
Duration : 1h 24mn
Overall bit rate : 1 341 Kbps
Writing application : VirtualDubMod 1.5.10.2 (build 2542/release)
Writing library : VirtualDubMod build 2542/release


Video
Format : xvid
Codec ID : xvid
Duration : 1h 24mn
Bit rate : 1 200 Kbps
Width : 704 pixels
Height : 366 pixels
Display aspect ratio : 1.923
Frame rate : 23.976 fps
Resolution : 24 bits
Bits/(Pixel*Frame) : 0.194
Stream size : 725 MiB (90%)

Audio
ID : 1
Format : MPEG Audio
Format version : Version 1
Format profile : Layer 3
Codec ID : 55
Codec ID/Hint : MP3
Duration : 1h 24mn
Bit rate mode : Constant
Bit rate : 128 Kbps
Channel(s) : 2 channels
Sampling rate : 48.0 KHz
Resolution : 16 bits
Stream size : 77.3 MiB (10%)
Alignment : Aligned on interleaves
Interleave, duration : 24 ms (0.58 video frame)
Interleave, preload duration : 24 ms

===================================================================================
===================================================================================
===================================================================================




_SSS
S
_SSS
____S
SSSS

EEEE
E
EEE
E
EEEE

EEEE
E
EEE
E
EEEE

DDD
D__D
D__D
D__D
DDD

=========================================================================================================================================================================================================================================================

related torrents

Torrent name

health leech seeds Size
 


comments (0)

Main Menu