Movies

Whiteout 2009 italian md ts xvid silent[survivalofmisa] avi

  • Download 5x Faster
  • Download torrent
  • Direct Download
  • Rate this torrent +  |  -
Whiteout 2009 italian md ts xvid silent[survivalofmisa] avi

Free and Direct Download with Usenet 300GB+ free


Torrent info

Name:Whiteout 2009 italian md ts xvid silent[survivalofmisa] avi

Total Size: 695.16 MB

Magnet: Magnet Link

Seeds: 0

Leechers: 0

Stream: Watch Online @ Movie4u

Last Updated: 2015-05-21 20:04:07 (Update Now)

Torrent added: 2009-10-03 14:00:20




Torrent Files List


 

tracker

leech seeds
 

Torrent description

more info:

General
Complete name : Whiteout.2009.iTALiAN.MD.TS.XviD-SiLENT[survivalofmisa].avi
Format : AVI
Format/Info : Audio Video Interleave
File size : 695 MiB
Duration : 1h 34mn
Overall bit rate : 1 032 Kbps
Writing application : VirtualDubMod 1.5.10.2 (build 2542/release)
Writing library : VirtualDubMod build 2542/release

Video
ID : 0
Format : MPEG-4 Visual
Format profile : [email protected]
Format settings, BVOP : No
Format settings, QPel : No
Format settings, GMC : No warppoints
Format settings, Matrix : Default (MPEG)
Codec ID : XVID
Codec ID/Hint : XviD
Duration : 1h 34mn
Bit rate : 898 Kbps
Width : 608 pixels
Height : 240 pixels
Display aspect ratio : 2.533
Frame rate : 25.000 fps
Resolution : 24 bits
Colorimetry : 4:2:0
Scan type : Progressive
Bits/(Pixel*Frame) : 0.246
Stream size : 605 MiB (87%)
Writing library : XviD 1.2.1 (UTC 2008-12-04)

Audio
ID : 1
Format : MPEG Audio
Format version : Version 1
Format profile : Layer 3
Codec ID : 55
Codec ID/Hint : MP3
Duration : 1h 34mn
Bit rate mode : Variable
Bit rate : 122 Kbps
Nominal bit rate : 128 Kbps
Channel(s) : 2 channels
Sampling rate : 48.0 KHz
Resolution : 16 bits
Stream size : 81.9 MiB (12%)
Alignment : Aligned on interleaves
Interleave, duration : 24 ms (0.60 video frame)
Interleave, preload duration : 520 ms
Writing library : LAME3.99a
Encoding settings : -m j -V 4 -q 3 -lowpass 17 --abr 128

more info: Survivalofmisa.altervista.

related torrents

Torrent name

health leech seeds Size
 

comments (0)

Main Menu