Documentary

The War Between The States The Undefeated Southern Truth 4616470 TPB

  • Download 5x Faster
  • Download torrent
  • Direct Download
  • Rate this torrent +  |  -
The War Between The States The Undefeated Southern Truth 4616470 TPB

Free and Direct Download with Usenet.nl 300GB+ free


Torrent info

Name:The War Between The States The Undefeated Southern Truth 4616470 TPB

Total Size: 698.11 MB

Magnet: Magnet Link

Seeds: 1

Leechers: 1

Stream: Watch Online @ Movie4u

Last Updated: 0000-00-00 00:00:00 (Update Now)

Torrent added: 2009-01-02 04:19:49





Torrent Files List


The.War.Between.The.States.DVDrip.720x540.xvid.mp3-snach.avi (Size: 698.11 MB) (Files: 3)

 The.War.Between.The.States.DVDrip.720x540.xvid.mp3-snach.avi

698.11 MB

 Torrent downloaded from Demonoid.com.txt

0.05 KB

 tracked_by_h33t_com.txt

0.02 KB
 

Announce URL: http://www.h33t.com:3310/announce

Torrent description

--This is my DVDrip of a VHSrip of this great doc--

The War Between The States And The Undefeated Southern Truth


Program Info
The end of the documentary also the title:
"The War Between The States And The Federal Government"

This is a rip from the .iso file that jamesers upped(cheers!) that can be found here:
http://tracker.conspiracycentral.net/torrents-details.php?id=3984&hit=1

This video will give you a definitive understanding of America's most critical war. The contents of this video are designed to present the untold history of the planning and events that led to war. Topics covered include: slavery; how some blacks owned white slaves in Virginia; abolitionists, and how that movement was taken over for the purpose of pushing America into war; how the Constitution was the target and victim of the war. This video explains the European connection, and the foreign infiltration into the Confederate government itself; the tracing of a continuum of secession attempts dating back to 1804; the illegality of reconstruction and the creation of the 14th Amendment Citizenship hoax; and everything needed to trace the roots of today's power hungry Federal Government.

Interviews include: John Hurley, President of the Confederate Embassy in Washington D.C. speaks on Southern Culture. Eustice Mullens presents the evidence of the lesser known 'intrigues' that created the war. Randy Geiszler speaks on the legal ramifications of the war affecting the Constitution, Martial Law and the 13th and 14th Amendments. Professor Edward Smith covers the 'Black' issues of the war including the Northern slave industry as well as discussion of the Blacks who served in the Confederacy. Other issues covered are Secession, States Rights, Reconstruction, Carpetbaggers, the Dred Scott Decision, and much more, including biographical profiles of the Who's Who in this catalog of treason.

This video is spiced up with reenactment scenes on the battlefield and with titles and graphics that assist the viewer in getting the names and facts straight. This is a one of a kind video documentary that covers the subjects avoided by the establishment."

Please don't complain about the quality...this is the best you'll get of a rare doc for free. And if you know what year this came out, say so, I'll add it to the info.


Video Info
The.War.Between.The.States.DVDrip.720x540.xvid.mp3-snach.avi

Format : AVI
Format/Info : Audio Video Interleave
File size : 698 MiB
Duration : 2h 8mn
Overal bit rate : 762 Kbps
Movie name : The War Between The States & The Undefeated Southern Truth
Writing application : MEncoder MasterSoft for Vista

Video
Format : MPEG-4 Visual
Format profile : [email protected]
Format settings, BVOP : No
Format settings, QPel : No
Format settings, GMC : No warpoints
Format settings, Matrix : Default
Codec ID : XVID
Codec ID/Hint : XviD
Duration : 2h 8mn
Bit rate : 620 Kbps
Width : 720 pixels
Height : 540 pixels
Display aspect ratio : 4/3
Frame rate : 29.970 fps
Resolution : 8 bits
Colorimetry : 4:2:0
Scan type : Progressive
Bits/(Pixel*Frame) : 0.053
Stream size : 568 MiB
Writing library : XviD 1.1.2 (UTC 2006-11-01)

Audio
Format : MPEG Audio
Format version : Version 1
Format profile : Layer 3
Codec ID : 55
Codec ID/Hint : MP3
Duration : 2h 8mn
Bit rate mode : Constant
Bit rate : 128 Kbps
Channel(s) : 2 channels
Sampling rate : 48.0 KHz
Resolution : 16 bits
Stream size : 117 MiB
Writing library : LAME3.97


Trackers(for you to add)
http://tracker.conspiracycentral.net/announce
http://tracker.thepiratebay.org:80/announce
http://denis.stalker.h3q.com:6969/announce
http://open.tracker.thepiratebay.org/announce
http://torrent-downloads.to:5869/announce
http://www.h33t.com:3310/announce
http://inferno.demonoid.com:3403/announce

Visit & Join us at:
http://tracker.ConspiracyCentral.net

Enjoy & Seed!

related torrents

Torrent name

health leech seeds Size
 

comments (0)

Main Menu