Comedy

Very Bad Things (1998) DVDRip MP3 ENG

  • Download 5x Faster
  • Download torrent
  • Direct Download
  • Rate this torrent +  |  -
Very Bad Things (1998) DVDRip MP3 ENG

Anonymous and Free Direct Download 300GB+


Torrent info

Name:Very Bad Things (1998) DVDRip MP3 ENG

Total Size: 700.04 MB

Magnet: Magnet Link

Seeds: 0

Leechers: 0

Stream: Watch Online @ Movie4u

Last Updated: 2010-12-08 12:41:13 (Update Now)

Torrent added: 2009-01-02 04:19:34



VPN For Torrents

Torrent Files List


Tracked_by_Demonoid_com.txt (Size: 700.04 MB) (Files: 3)

 Tracked_by_Demonoid_com.txt

0.03 KB

 Very Bad Things (1998) - DVDRip - MP3 - ENG.avi

700.03 MB

 Very Bad Things (1998) - DVDRip - MP3 - ENG.nfo

10.33 KB
 

Announce URL:

Torrent description

Very Bad Things (1998)

IMDb: http://www.imdb.com/title/tt0124198
User Rating: 5.9/10 18,747 votes
Release Date: 29 January 1999 (UK)
Genre: Comedy | Crime | Thriller
Tagline: A very savage comedy. This fall. Tell no one.

Plot: A prostitute is killed during a bachelor party and the attendees turn on each other as the wedding approaches.

Cast:
Jon Favreau ... Kyle Fisher
Leland Orser ... Charles Moore
Cameron Diaz ... Laura Garrety
Christian Slater ... Robert Boyd
Rob Brownstein ... Man
Jeremy Piven ... Michael Berkow
Daniel Stern ... Adam Berkow
Jeanne Tripplehorn ... Lois Berkow



Screenshots:

Very Bad Things (1998)   DVDRip   MP3   ENG preview 0
Very Bad Things (1998)   DVDRip   MP3   ENG preview 1
Very Bad Things (1998)   DVDRip   MP3   ENG preview 2
Very Bad Things (1998)   DVDRip   MP3   ENG preview 3



General
Complete name : Very Bad Things (1998) - DVDRip - MP3 - ENG.avi
Format : AVI
Source : PAL DVD
File size : 700 MiB
Duration : 1h 36mn
Overal bit rate : 1014 Kbps
Language : English

Video
Codec ID : XVID
Duration : 1h 36mn
Bit rate : 878 Kbps
Width : 640 pixels
Height : 352 pixels
Display aspect ratio : 16/9
Frame rate : 25.000 fps
Resolution : 8 bits
Colorimetry : 4:2:0
Scan type : Progressive
Bits/(Pixel*Frame) : 0.156
Stream size : 607 MiB (87%)
Writing library : XviD 1.1.2

Audio
Format : MPEG Audio
Format version : Version 1
Format profile : Layer 3
Codec ID/Hint : MP3
Duration : 1h 36mn
Bit rate mode : Constant
Bit rate : 128 Kbps
Channel(s) : 2 channels
Sampling rate : 48.0 KHz
Resolution : 16 bits
Stream size : 88.4 MiB (13%)
Writing library : LAME3.97
Encoding settings : CBR




Trackers:

http://inferno.demonoid.com:3403/announce
http://tpb.tracker.thepiratebay.org:80/announce
http://denis.stalker.h3q.com:6969/announce
http://www.torrent-downloads.to:5869/announce
http://vip.tracker.thepiratebay.org/announce


Info Hash: 3D482419E52D5C285E77C91389F158820CC36A2E

related torrents

Torrent name

health leech seeds Size
 


comments (0)

Main Menu