Horror

100 Tears (2007) DVDRip XviD M14CH0 by M333

  • Download 5x Faster
  • Download torrent
  • Direct Download
  • Rate this torrent +  |  -
100 Tears (2007) DVDRip XviD M14CH0 by M333

Anonymous and free Direct Download 300GB+


Torrent info

Name:100 Tears (2007) DVDRip XviD M14CH0 by M333

Total Size: 701.30 MB

Magnet: Magnet Link

Seeds: 1

Leechers: 46

Stream: Watch Online @ Movie4u

Last Updated: 2010-12-04 12:17:52 (Update Now)

Torrent added: 2008-06-28 18:35:49



VPN For Torrents

Torrent Files List


100 Tears (2007) DVDRip XviD - M14CH0 by M333.avi (Size: 701.30 MB) (Files: 5)

 100 Tears (2007) DVDRip XviD - M14CH0 by M333.avi

701.03 MB

 100 Tears.jpg

63.68 KB

 Logo.jpg

205.50 KB

 nfo.txt

2.80 KB

 Torrent downloaded from Demonoid.com.txt

0.05 KB
 

Announce URL: http://tpb.tracker.thepiratebay.org:80/announce

Torrent description

General
Complete name : 100 Tears (2007) DVDRip XviD - M14CH0 by M333.avi
Format : AVI
Format/Info : Audio Video Interleave
File size : 701 MiB
Duration : 1h 29mn
Overal bit rate : 1093 Kbps
Movie name : 100 Tears (2007) DVDRip XviD - M14CH0 by M333
segm : ?

Video
Format : MPEG-4 Visual
Format profile : Streaming [email protected]
Format settings, BVOP : Yes
Format settings, QPel : No
Format settings, GMC : No warppoints
Format settings, Matrix : Default
Codec ID : XVID
Codec ID/Hint : XviD
Duration : 1h 29mn
Bit rate : 942 Kbps
Width : 640 pixels
Height : 368 pixels
Display aspect ratio : 16/9
Frame rate : 25.000 fps
Resolution : 8 bits
Colorimetry : 4:2:0
Scan type : Progressive
Bits/(Pixel*Frame) : 0.160
Stream size : 604 MiB
Writing library : XviD 1.1.2 (UTC 2006-11-01)

Audio
Format : MPEG Audio
Format version : Version 1
Format profile : Layer 3
Codec ID : 55
Codec ID/Hint : MP3
Duration : 1h 29mn
Bit rate mode : Variable
Bit rate : 137 Kbps
Nominal bit rate : 128 Kbps
Channel(s) : 2 channels
Sampling rate : 48.0 KHz
Resolution : 16 bits
Stream size : 88.3 MiB
Writing library : LAME3.90.
Encoding settings : ABR
Language : undefined

HASH

0030306DADE2F6A41B9903700901E890767D8C75

Trackers

http://tpb.tracker.thepiratebay.org:80/announce

http://denis.stalker.h3q.com:6969/announce

http://open.tracker.thepiratebay.org/announce

http://www.torrentsnipe.info:2701/announce

http://open.tracker.thepiratebay.org/announce

http://vip.tracker.thepiratebay.org:80/announce


Screen Shots

100 Tears (2007) DVDRip XviD   M14CH0 by M333 preview 0

100 Tears (2007) DVDRip XviD   M14CH0 by M333 preview 1

100 Tears (2007) DVDRip XviD   M14CH0 by M333 preview 2

100 Tears (2007) DVDRip XviD   M14CH0 by M333 preview 3

100 Tears (2007) DVDRip XviD   M14CH0 by M333 preview 4

IMDB

http://www.imdb.com/title/tt0943946/

related torrents

Torrent name

health leech seeds Size
 


comments (0)

Main Menu