Comedy

Elling avi

  • Download 5x Faster
  • Download torrent
  • Direct Download
  • Rate this torrent +  |  -
Elling avi

Free and Direct Download with Usenet.nl 300GB+ free


Torrent info

Name:Elling avi

Total Size: 699.05 MB

Magnet: Magnet Link

Seeds: 3

Leechers: 5

Stream: Watch Online @ Movie4u

Last Updated: 2010-10-04 22:20:39 (Update Now)

Torrent added: 2009-01-01 11:11:33

Alternatives:Elling avi Torrents





Torrent Files List


Elling.avi (Size: 699.05 MB) (Files: 1)

 Elling.avi

699.05 MB
 

Announce URL: http://tracker.tntvillage.scambioetico.org:2710/announce

Torrent description

Elling, [DivX - Ita Mp3][www.tntvillage.scambioetico.org]

Scheda del film

Titolo:Elling
Titolo originale:Brodre i blodet
Nazionalità:Norvegia
Anno:2001
Genere:Commedia/Drammatico
Regia:Petter Næss
Produzione:Maipo Film- og TV Produksjon
Distribuzione:IIF
Data di uscita:22 Novembre 2002 (cinema)

Cast

Per Christian Ellefsen, Sven Nordin, Marit Pia Jacobsen, Jørgen Langhelle

Scheda tecnica (Mediainfo)

General
Complete name : Elling.avi
Format : AVI
Format/Info : Audio Video Interleave
File size : 699 MiB
Duration : 1h 24mn
Overall bit rate : 1 153 Kbps
Writing library : VirtualDub build 16189/release

Video
Format : MPEG-4 Visual
Format settings, BVOP : Yes
Format settings, QPel : No
Format settings, GMC : No warppoints
Format settings, Matrix : Default
Muxing mode : Packed bitstream
Codec ID : DX50
Codec ID/Hint : DivX 5
Duration : 1h 24mn
Bit rate : 1 032 Kbps
Width : 560 pixels
Height : 304 pixels
Display aspect ratio : 16/9
Frame rate : 25.000 fps
Resolution : 24 bits
Colorimetry : 4:2:0
Scan type : Progressive
Bits/(Pixel*Frame) : 0.242
Stream size : 625 MiB (89%)
Writing library : DivX 5.0.5 (UTC 2003-04-24)

Audio
Format : MPEG Audio
Format version : Version 1
Format profile : Layer 3
Codec ID : 55
Codec ID/Hint : MP3
Duration : 1h 24mn
Bit rate mode : Constant
Bit rate : 112 Kbps
Channel(s) : 2 channels
Sampling rate : 48.0 KHz
Resolution : 16 bits
Stream size : 67.9 MiB (10%)
Alignment : Split accross interleaves
Interleave, duration : 40 ms (1.00 video frame)
Interleave, preload duration : 500 ms

related torrents

Torrent name

health leech seeds Size
 

comments (0)

Main Menu