Music Videos

Jason Mraz Im Yours 2008

  • Download 5x Faster
  • Download torrent
  • Direct Download
  • Rate this torrent +  |  -
Jason Mraz Im Yours 2008

Anonymous and Direct Download 300GB+ free


Torrent info

Name:Jason Mraz Im Yours 2008

Total Size: 57.62 MB

Magnet: Magnet Link

Seeds: 0

Leechers: 0

Stream: Watch Online @ Movie4u

Last Updated: 2011-01-08 17:14:51 (Update Now)

Torrent added: 2009-01-01 00:03:36




Torrent Files List


Jason Mraz - I'm Yours [2008].avi (Size: 57.62 MB) (Files: 1)

 Jason Mraz - I'm Yours [2008].avi

57.62 MB
 

Announce URL:

Torrent description

Jason Mraz - I'm Yours [2008]

General
Format : AVI
Format/Info : Audio Video Interleave
File size : 57.6 MiB
Duration : 3mn 40s
Overall bit rate : 2191 Kbps
Movie name : Jason Mraz - I'm Yours
Director : (c) 2008 mixxing by_Dj.Tong.
Writing application : VirtualDubMod 1.5.10.2 (build 2540/release)
Writing library : VirtualDubMod build 2540/release
Copyright : (c) 2008 mixxing by_Dj.Tong.
Comment : (c) 2008 mixxing by_Dj.Tong.

Video
Format : MPEG-4 Visual
Format settings, BVOP : Yes
Format settings, QPel : No
Format settings, GMC : No warppoints
Format settings, Matrix : Default
Codec ID : DX50
Codec ID/Hint : DivX 5
Duration : 3mn 40s
Bit rate : 1987 Kbps
Width : 720 pixels
Height : 310 pixels
Display aspect ratio : 2.35
Frame rate : 29.970 fps
Resolution : 24 bits
Colorimetry : 4:2:0
Scan type : Progressive
Bits/(Pixel*Frame) : 0.297
Stream size : 52.3 MiB (91%)
Writing library : DivX 2676

Audio
Format : MPEG Audio
Format version : Version 1
Format profile : Layer 3
Codec ID : 55
Codec ID/Hint : MP3
Duration : 3mn 40s
Bit rate mode : Constant
Bit rate : 192 Kbps
Channel(s) : 2 channels
Sampling rate : 48.0 KHz
Resolution : 16 bits
Stream size : 5.05 MiB (9%)
Alignment : Split accross interleaves
Interleave, duration : 33 ms (1.00 video frame)
Interleave, preload duration : 500 ms
Writing library : LAME3.98

related torrents

Torrent name

health leech seeds Size
 


comments (0)

Main Menu