Movies - Other

La Trilogia De Perrone

  • Download 5x Faster
  • Download torrent
  • Direct Download
  • Rate this torrent +  |  -
La Trilogia De Perrone

Anonymous and Free Direct Download


Torrent info

Name:La Trilogia De Perrone

Total Size: 2.05 GB

Magnet: Magnet Link

Seeds: 1

Leechers: 2

Stream: Watch Online @ Movie4u

Last Updated: 2010-01-25 09:05:19 (Update Now)

Torrent added: 2008-12-31 12:37:29



VPN For Torrents

Torrent Files List


1994 - Labios de churrasco.avi (Size: 2.05 GB) (Files: 3)

 1994 - Labios de churrasco.avi

699.33 MB

 1997 - Graciadio.avi

701.60 MB

 1998 - 5 pal peso.avi

699.09 MB
 

Announce URL: http://open.tracker.thepiratebay.org/announce

Torrent description


General

Complete name : 1994 - Labios de churrasco.avi
Format : AVI
Format/Info : Audio Video Interleave
File size : 699 MiB
Duration : 1h 0mn
Overall bit rate : 1610 Kbps
Writing application : VirtualDubMod 1.5.4.1 (build 2178/release)
Writing library : VirtualDubMod build 2178/release
IAS1 : Espanol

Video

Format : MPEG-4 Visual
Format profile : Streaming [email protected]
Format settings, BVOP : Yes
Format settings, QPel : No
Format settings, GMC : No warppoints
Format settings, Matrix : Custom
Codec ID : XVID
Codec ID/Hint : XviD
Duration : 1h 0mn
Bit rate : 1482 Kbps
Width : 624 pixels
Height : 464 pixels
Display aspect ratio : 4/3
Frame rate : 29.970 fps
Resolution : 8 bits
Colorimetry : 4:2:0
Scan type : Progressive
Bits/(Pixel*Frame) : 0.171
Stream size : 644 MiB (92%)
Writing library : XviD 1.2.0.dev47 (UTC 2006-11-01)

Audio

Format : MPEG Audio
Format version : Version 1
Format profile : Layer 3
Codec ID : 55
Codec ID/Hint : MP3
Duration : 1h 0mn
Bit rate mode : Variable
Bit rate : 114 Kbps
Minimum bit rate : 128 Kbps
Channel(s) : 2 channels
Sampling rate : 48.0 KHz
Resolution : 16 bits
Video delay : 72ms
Stream size : 49.7 MiB (7%)
Alignment : Aligned on interleaves
Interleave, duration : 24 ms (0.72 video frame)
Interleave, preload duration : 677 ms
Writing library : LAME3.97
Encoding settings : ABR

-----------------------------------------------------------
-----------------------------------------------------------

General

Complete name : 1997 - Graciadio.avi
Format : AVI
Format/Info : Audio Video Interleave
File size : 702 MiB
Duration : 1h 17mn
Overall bit rate : 1269 Kbps
Writing application : VirtualDubMod 1.5.4.1 (build 2178/release)
Writing library : VirtualDubMod build 2178/release
IAS1 : Espanol

Video

Format : MPEG-4 Visual
Format profile : Streaming [email protected]
Format settings, BVOP : Yes
Format settings, QPel : No
Format settings, GMC : No warppoints
Format settings, Matrix : Custom
Codec ID : XVID
Codec ID/Hint : XviD
Duration : 1h 17mn
Bit rate : 1146 Kbps
Width : 528 pixels
Height : 400 pixels
Display aspect ratio : 4/3
Frame rate : 29.970 fps
Resolution : 8 bits
Colorimetry : 4:2:0
Scan type : Progressive
Bits/(Pixel*Frame) : 0.181
Stream size : 634 MiB (90%)
Writing library : XviD 1.2.0.dev47 (UTC 2006-11-01)

Audio

Format : MPEG Audio
Format version : Version 1
Format profile : Layer 3
Codec ID : 55
Codec ID/Hint : MP3
Duration : 1h 17mn
Bit rate mode : Variable
Bit rate : 109 Kbps
Minimum bit rate : 128 Kbps
Channel(s) : 2 channels
Sampling rate : 48.0 KHz
Resolution : 16 bits
Stream size : 60.1 MiB (9%)
Alignment : Aligned on interleaves
Interleave, duration : 24 ms (0.72 video frame)
Interleave, preload duration : 564 ms
Writing library : LAME3.97
Encoding settings : ABR

----------------------------------------------------------
----------------------------------------------------------

General

Complete name : 1998 - 5 pal peso.avi
Format : AVI
Format/Info : Audio Video Interleave
File size : 699 MiB
Duration : 1h 17mn
Overall bit rate : 1257 Kbps
Writing application : VirtualDubMod 1.5.4.1 (build 2178/release)
Writing library : VirtualDubMod build 2178/release
IAS1 : Espanol

Video

Format : MPEG-4 Visual
Format profile : Streaming [email protected]
Format settings, BVOP : Yes
Format settings, QPel : No
Format settings, GMC : No warppoints
Format settings, Matrix : Custom
Codec ID : XVID
Codec ID/Hint : XviD
Duration : 1h 17mn
Bit rate : 1127 Kbps
Width : 512 pixels
Height : 384 pixels
Display aspect ratio : 4/3
Frame rate : 29.970 fps
Resolution : 8 bits
Colorimetry : 4:2:0
Scan type : Progressive
Bits/(Pixel*Frame) : 0.191
Stream size : 627 MiB (90%)
Writing library : XviD 1.2.0.dev47 (UTC 2006-11-01)

Audio

Format : MPEG Audio
Format version : Version 1
Format profile : Layer 3
Codec ID : 55
Codec ID/Hint : MP3
Duration : 1h 17mn
Bit rate mode : Variable
Bit rate : 116 Kbps
Minimum bit rate : 128 Kbps
Channel(s) : 2 channels
Sampling rate : 48.0 KHz
Resolution : 16 bits
Stream size : 64.5 MiB (9%)
Alignment : Aligned on interleaves
Interleave, duration : 24 ms (0.72 video frame)
Interleave, preload duration : 493 ms
Writing library : LAME3.97
Encoding settings : ABR

----------------------------------------------------------
----------------------------------------------------------

related torrents

Torrent name

health leech seeds Size
 


comments (0)

Main Menu