Action

Troy DVDRIP ZEKTORM

  • Download 5x Faster
  • Download torrent
  • Direct Download
  • Rate this torrent +  |  -
Troy DVDRIP ZEKTORM

Anonymous and Direct Download 300GB+ free


Torrent info

Name:Troy DVDRIP ZEKTORM

Total Size: 716.66 MB

Magnet: Magnet Link

Seeds: 2

Leechers: 1

Stream: Watch Online @ Movie4u

Last Updated: 0000-00-00 00:00:00 (Update Now)

Torrent added: 2008-12-31 12:36:30




Torrent Files List


READ.hlp (Size: 716.66 MB) (Files: 4)

 READ.hlp

12.76 KB

 Subs

  Troy.DVDRIP-ZEKTORM.idx

313.04 KB

  Troy.DVDRIP-ZEKTORM.sub

16.13 MB

 Troy.DVDRIP-ZEKTORM.mp4

700.20 MB
 

Announce URL: http://tracker.torrentbox.com:2710/announce

Torrent description

Title : Troy

Year : 2004
Genre : Action | Drama | History | Romance
iMDB Rate : User Rating: 7.0/10 100,873 votes
iMDB URL : http://www.imdb.com/title/tt0332452/
Awards : Nominated for Oscar. Another 3 wins & 17 nominations

Complete name : Troy.DVDRIP-ZEKTORM.mp4
Format : MPEG-4
Format profile : Base Media
Codec ID : isom
File size : 700 MiB
Duration : 2h 42mn
Overall bit rate : 601 Kbps
Subtitles : English, Spanish, French (Format: VobSub)
Source : DVD NTSC
Encoded date : UTC 2008-12-30 03:29:51

Video
Format : AVC
Format/Info : Advanced Video Codec
Format profile : [email protected]
Format settings, CABAC : Yes
Format settings, ReFrames : 10 frames
Codec ID : avc1
Codec ID/Info : Advanced Video Coding
Duration : 2h 42mn
Bit rate mode : Variable
Bit rate : 514 Kbps
Maximum bit rate : 4262 Kbps
Width : 704 pixels
Height : 352 pixels
Display aspect ratio : 2.424
Frame rate mode : Constant
Frame rate : 23.976 fps
Resolution : 24 bits
Colorimetry : 4:2:0
Scan type : Progressive
Bits/(Pixel*Frame) : 0.087
Stream size : 598 MiB (85%)
Title : Video
Writing library : x264 core 60 r900 a9af942

Audio
Format : AAC
Format/Info : Advanced Audio Codec
Format version : Version 4
Format profile : LC
Format settings, SBR : Yes
Format settings, PS : No
Codec ID : 40
Duration : 2h 42mn
Bit rate mode : Variable
Bit rate : 84.5 Kbps
Maximum bit rate : 107 Kbps
Channel(s) : 2 channels
Channel positions : L R
Sampling rate : 48.0 KHz
Resolution : 16 bits
Stream size : 98.3 MiB (14%)
Title : English
Language : English

Notes : Convert to DVD with Nero

related torrents

Torrent name

health leech seeds Size

troy hinton troy hinton

1 1 31.38 MB 0
 


comments (0)

Main Menu