Sci-Fi

Sunshine 2007 DVDRIP ZEKTORM

  • Download 5x Faster
  • Download torrent
  • Direct Download
  • Rate this torrent +  |  -
Sunshine 2007 DVDRIP ZEKTORM

Anonymous and Free Direct Download 300GB+


Torrent info

Name:Sunshine 2007 DVDRIP ZEKTORM

Total Size: 708.84 MB

Magnet: Magnet Link

Seeds: 21

Leechers: 62

Stream: Watch Online @ Movie4u

Last Updated: 2011-01-03 16:46:51 (Update Now)

Torrent added: 2008-12-31 09:55:41



VPN For Torrents

Torrent Files List


READ.hlp (Size: 708.84 MB) (Files: 4)

 READ.hlp

12.69 KB

 Subs

  Sunshine.2007.DVDRIP-ZEKTORM.idx

126.05 KB

  Sunshine.2007.DVDRIP-ZEKTORM.sub

8.55 MB

 Sunshine.2007.DVDRIP-ZEKTORM.mp4

700.15 MB
 

Announce URL: http://eztv.tracker.thepiratebay.org:80/announce

Torrent description

Title : Sunshine
Year : 2007
Genre : Adventure | Sci-Fi | Thriller
iMDB Rate : User Rating: 7.3/10 54,417 votes
iMDB URL : http://www.imdb.com/title/tt0448134/
Awards : 1 win & 7 nominations

Complete name : Sunshine.2007.DVDRIP-ZEKTORM.mp4
Format : MPEG-4
Format profile : Base Media
Codec ID : isom
File size : 700 MiB
Duration : 1h 47mn
Overall bit rate : 911 Kbps
Subtitles : English, Spanish, Portuguese (Format: VobSub)
Source : DVD NTSC
Encoded date : UTC 2008-12-29 23:20:22

Video
Format : AVC
Format/Info : Advanced Video Codec
Format profile : [email protected]
Format settings, CABAC : Yes
Format settings, ReFrames : 10 frames
Codec ID : avc1
Codec ID/Info : Advanced Video Coding
Duration : 1h 47mn
Bit rate mode : Variable
Bit rate : 823 Kbps
Maximum bit rate : 8421 Kbps
Width : 704 pixels
Height : 368 pixels
Display aspect ratio : 2.35
Frame rate mode : Constant
Frame rate : 23.976 fps
Resolution : 24 bits
Colorimetry : 4:2:0
Scan type : Progressive
Bits/(Pixel*Frame) : 0.132
Stream size : 633 MiB (90%)
Title : Video
Writing library : x264 core 60 r900 a9af942

Audio
Format : AAC
Format/Info : Advanced Audio Codec
Format version : Version 4
Format profile : LC
Format settings, SBR : Yes
Format settings, PS : No
Codec ID : 40
Duration : 1h 47mn
Bit rate mode : Variable
Bit rate : 85.2 Kbps
Maximum bit rate : 109 Kbps
Channel(s) : 2 channels
Channel positions : L R
Sampling rate : 48.0 KHz
Resolution : 16 bits
Stream size : 65.5 MiB (9%)
Title : English
Language : English

Notes : Convert to DVD with Nero

related torrents

Torrent name

health leech seeds Size

Sunshine[2007]dvdrip[eng] axxo

13 249 701.00 MB 0

Sunshine 2007 Xvid moodie

0 0 873.31 MB 0
 


comments (0)

Main Menu