Drama

Lakeview Terrace2008 Dvdrip Xvid Engsub AC35 1 RoCK&BlueLadyRG

  • Download 5x Faster
  • Download torrent
  • Direct Download
  • Rate this torrent +  |  -
Lakeview Terrace2008 Dvdrip Xvid Engsub AC35 1 RoCK&BlueLadyRG

Anonymous and Free Direct Download 300GB+


Torrent info

Name:Lakeview Terrace2008 Dvdrip Xvid Engsub AC35 1 RoCK&BlueLadyRG

Total Size: 1.56 GB

Magnet: Magnet Link

Seeds: 2

Leechers: 76

Stream: Watch Online @ Movie4u

Last Updated: 2010-08-02 10:55:31 (Update Now)

Torrent added: 2008-12-30 12:41:44



VPN For Torrents

Torrent Files List


Lakeview.Terrace[2008].Dvdrip.Xvid.[Engsub].AC3[5.1]-RoCK&BlueLadyRG.avi (Size: 1.56 GB) (Files: 3)

 Lakeview.Terrace[2008].Dvdrip.Xvid.[Engsub].AC3[5.1]-RoCK&BlueLadyRG.avi

1.56 GB

 Lakeview.Terrace[2008].Dvdrip.Xvid.[Engsub].AC3[5.1]-RoCK&BlueLadyRG.nfo

6.08 KB

 Lakeview.Terrace[2008].Dvdrip.Xvid.[Engsub].AC3[5.1]-RoCK&BlueLadyRG.srt

109.62 KB
 

Announce URL: http://vip.tracker.thepiratebay.org:80/announce

Torrent description


RoCK & BlueLady RG

*******************************************************************************
Proudly presents: Lakeview terrace (2008)
*******************************************************************************

-------------------------------------------------------------------------------
General Information
-------------------------------------------------------------------------------
Type : Movie
Burn Tested : Yes
Subtitles : English
: Dutch can be found on http://www.genesis-sp.com

Format/Info : Audio Video Interleave
File size : 1.56 GiB
Duration : 1h 50mn
Overall bit rate : 2 024 Kbps
Writing application : VirtualDubMod 1.5.10.2 (build 2540/release)
Writing library : VirtualDubMod build 2540/release

Audio Enlish
Format : AC-3
Format/Info : Audio Coding 3
Codec ID : 2000
Duration : 1h 50mn
Bit rate mode : Constant
Bit rate : 448 Kbps
Channel(s) : 6 channels
Channel positions : Front: L C R, Surround: L R, LFE
Sampling rate : 48.0 KHz
Stream size : 354 MiB (22%)
Alignment : Split accross interleaves
Interleave, duration : 42 ms (1.00 video frame)
Interleave, preload duration : 500 ms

Video
Format : MPEG-4 Visual
Format settings, BVOP : No
Format settings, QPel : No
Format settings, GMC : No warppoints
Format settings, Matrix : Default
Codec ID : XVID
Codec ID/Hint : XviD
Duration : 1h 50mn
Bit rate : 1 567 Kbps
Width : 720 pixels
Height : 304 pixels
Display aspect ratio : 2.35
Frame rate : 23.976 fps
Resolution : 24 bits
Colorimetry : 4:2:0
Scan type : Progressive
Bits/(Pixel*Frame) : 0.299
Stream size : 1.21 GiB (77%)
Writing library : XviD 1.0.3 (UTC 2004-12-20)



Source : Retail-DVD
Original Format : NTSC
Genre : Drama | Thriller
IMDb Rating : 6.4 (4,795 Votes)
Movie Information : http://www.imdb.com/title/tt0947802/
-------------------------------------------------------------------------------
Post Information
-------------------------------------------------------------------------------
Posted by............: RoCK (http://www.genesis-sp.com)
Posted on............: 30-12-2008

-------------------------------------------------------------------------------
Release Notes
-------------------------------------------------------------------------------
The usually provocative Neil LaBute reigns in his more eccentric tendencies for
this straightforward domestic thriller. Then again, LaBute, who divides his time
between cinema and theater, didn't write the material. The bad vibes begin when
Chris (Patrick Wilson) and Lisa Mattson (Kerry Washington) move in next door to
widowed cop Abel Turner (Samuel L. Jackson, as nasty as Aaron Eckhart in LaBute's
In the Company of Men). A strict father of two, Turner works in a diverse unit
(Jay Hernandez plays his partner), but takes less kindly to interracial
relationships. From the start, he makes the Mattsons uncomfortable with
inappropriate remarks and unwarranted intrusions, like the security light trained
on their bedroom, under the guise of self-appointed neighborhood guardian.
Initially, Turner's actions exacerbate the tensions between the seemingly
happy pair--Lisa wants to start a family, Chris wants to wait--until they realize
they'll have to work together to protect themselves from their troubled neighbor.
And since he's a member of the LAPD, Turner's colleagues have his back, despite
the break-ins and flat tires bedeviling the Mattsons. When they make it clear
they intend to stay, Turner takes his harassment campaign to the next level.
The A-list cast does what they can, but the B-movie script from Howard Korder
and Passenger 57's David Loughery, offers few surprises--at least to those who've
seen Fatal Attraction and The Hand That Rocks the Cradle--and LaBute's by-the-books
direction lacks its usual bite.

Director: Neil LaBute

Writers : David Loughery
Howard Korder

Cast :

Samuel L. Jackson ... Abel Turner
Patrick Wilson ... Chris Mattson
Kerry Washington ... Lisa Mattson
Ron Glass ... Harold Perreau
Justin Chambers ... Donnie Eaton
Jay Hernandez ... Javier Villareal
Regine Nehy ... Celia Turner
Jaishon Fisher ... Marcus Turner
Robert Pine ... Captain Wentworth
Keith Loneker ... Clarence Darlington
Caleeb Pinkett ... Damon Richards
Robert Dahey ... Jung Lee Pak
Ho-Jung ... Sang Hee Pak
Bitsie Tulloch ... Nadine
Michael Sean Tighe ... Manager

Enjoy this movie!



------------------------------------------------------------------------------------------
Announcement
------------------------------------------------------------------------------------------
I decided to drop the 1cd versions and replace them with movies in MKV format. This means
smaller filesizes with higher quality. The movies you can watch in VLC or download the x264
codec!

If you want to decode it and burn it on dvd use convertxtodvd 3


RoCK.






------------------------------------------------------------------------------------------
You can find us both at: http://www.genesis-sp.com/
------------------------------------------------------------------------------------------

related torrents

Torrent name

health leech seeds Size
 


comments (0)

Main Menu