Other

Baby Einstein H33T RICO

  • Download 5x Faster
  • Download torrent
  • Direct Download
  • Rate this torrent +  |  -
Baby Einstein H33T RICO

Free and Direct Download with Usenet.nl 300GB+ free


Torrent info

Name:Baby Einstein H33T RICO

Total Size: 12.42 GB

Magnet: Magnet Link

Seeds: 1

Leechers: 11

Stream: Watch Online @ Movie4u

Last Updated: 2010-08-30 08:35:52 (Update Now)

Torrent added: 2008-12-30 00:35:29





Torrent Files List


Baby Einstein Collection - 1 of 3 -RICO (Size: 12.42 GB) (Files: 26)

 Baby Einstein Collection - 1 of 3 -RICO

  Baby Bach.avi

158.05 MB

  Baby Da Vinci - From Head To Toe.divx

699.65 MB

  Baby MacDonald - A Day On The Farm.divx

699.52 MB

  Baby Neptune - Discovering Water.avi

699.60 MB

  Baby Newton.divx

697.79 MB

  Baby Santa's Music Box.avi

168.18 MB

  Baby Wordsworth - First Words Around The House.avi

699.56 MB

  World Animals.avi

303.93 MB

 Baby Einstein Collection - 2 of 3 -RICO

  Baby Beethoven - Symphony Of Fun.avi

314.82 MB

  Baby Dolittle.avi

370.33 MB

  Baby Galileo - Discovering the Sky.avi

423.47 MB

  Baby Monet.avi

619.30 MB

  Baby Mozart - Music Festival.avi

291.10 MB

  Baby Noah.avi

99.96 MB

  Baby Shakespeare.avi

629.28 MB

  Baby Van Gogh - World Of Colors.divx

546.24 MB

  Baby's First Moves.avi

252.35 MB

  Language Nursery.divx

620.05 MB

  Numbers Nursery.avi

235.38 MB

 Baby Einstein Collection - 3 of 3 -RICO

  Baby's Favorite Places - First Words Around Town.divx

699.71 MB

  Lullaby Time.divx

699.92 MB

  My First Signs.avi

695.84 MB

  Neighborhood Animals.divx

697.32 MB

  On The Go - Riding, Sailing and Soaring.divx

699.31 MB

  Sheep Dreams (From Lullaby Time).divx

699.48 MB

 tracked_by_h33t_com.txt

0.02 KB
 

Announce URL: http://www.h33t.com:3310/announce

Torrent description

Baby Einstein H33T RICO preview 0

General
Complete name : G:\Movies\Baby Einstein Movies -RICO\Baby Einstein Collection - 1 of 3 -RICO\Baby Bach.avi
Format : AVI
Format/Info : Audio Video Interleave
File size : 158 MiB
Duration : 27mn 36s
Overall bit rate : 801 Kbps
Writing application : MEncoder dev-SVN-rUNKNOWN-3.4.5
Writing library : MPlayer

Video
Format : MPEG-4 Visual
Format profile : Streaming [email protected]
Format settings, BVOP : Yes
Format settings, QPel : No
Format settings, GMC : No warppoints
Format settings, Matrix : Default
Codec ID : XVID
Codec ID/Hint : XviD
Duration : 27mn 36s
Bit rate : 675 Kbps
Width : 352 pixels
Height : 288 pixels
Display aspect ratio : 1.222
Frame rate : 25.000 fps
Resolution : 24 bits
Colorimetry : 4:2:0
Scan type : Progressive
Bits/(Pixel*Frame) : 0.266
Stream size : 133 MiB (84%)
Writing library : XviD 1.2.0SMP (UTC 2006-01-08)

Audio
Format : MPEG Audio
Format version : Version 1
Format profile : Layer 3
Codec ID : 55
Codec ID/Hint : MP3
Duration : 27mn 36s
Bit rate mode : Variable
Bit rate : 113 Kbps
Channel(s) : 2 channels
Sampling rate : 44.1 KHz
Resolution : 16 bits
Stream size : 22.4 MiB (14%)
Alignment : Aligned on interleaves
Interleave, duration : 26 ms (0.65 video frame)
Interleave, preload duration : 198 ms


related torrents

Torrent name

health leech seeds Size
 

comments (0)

Main Menu