Action

Jimmy + Judy German 2006 DVDRiP AC 3 XViD

  • Download 5x Faster
  • Download torrent
  • Direct Download
  • Rate this torrent +  |  -
Jimmy + Judy German 2006 DVDRiP AC 3 XViD

Free and Direct Download with Usenet 300GB+ free


Torrent info

Name:Jimmy + Judy German 2006 DVDRiP AC 3 XViD

Total Size: 2.06 GB

Magnet: Magnet Link

Seeds: 0

Leechers: 0

Stream: Watch Online @ Movie4u

Last Updated: 2010-09-23 02:25:40 (Update Now)

Torrent added: 2008-12-29 08:37:58




Torrent Files List


Cover (Size: 2.06 GB) (Files: 6)

 Cover

  Jimmy And Judy - Cover (alternativ engl.).jpg

5.53 MB

  Jimmy And Judy - DVD (alternativ engl.).jpg

1.27 MB

  Jimmy und Judy - Cover.jpg

1.15 MB

  Jimmy und Judy - DVD.jpg

379.06 KB

 Jimmy.&.Judy.German.2006.DVDRiP.XViD.AC-3.bLaDeR.avi

2.05 GB

 Jimmy.&.Judy.German.2006.DVDRiP.XViD.AC-3.bLaDeR.txt

2.53 KB
 

Announce URL: http://irrenhaus.dyndns.dk/announce.php

Torrent description


Titel.........: Jimmy.&.Judy.German.2006.DVDRiP.AC-3.XViD
Genre.........: Action/Thriller
Jahr..........: 2006
Spieldauer....: 95min
Source........: PAL-DVD9 (OWN!)
FSK...........: 18
Encoder.......: bLaDeR


Inhalt........:

http://www.splendidfilm.de/filminfo.php?id=24701

http://www.imdb.com/title/tt0425151/

ViDEO...........:


Format : MPEG-4 Visual
Codec ID : XVID
Codec ID/Hint : XviD
Duration : 1h 35mn
Bitrate : 2 676 Kbps
Width : 720 pixels
Height : 416 pixels
Display aspect ratio : 16/9
Frame rate : 25.000 fps
Resolution : 24 bits
Colorimetry : 4:2:0
Scan type : Progressive
Bits/(Pixel*Frame) : 0.357
Stream size : 1.79 GiB (87)
Writing library : XviD 1.2.0

AUDiO............:

Format : AC-3
Format/Info : Audio Coding 3
Codec ID : 2000
Duration : 1h 35mn
Bitrate mode : Constant
Bitrate : 384 Kbps
Channel(s) : 6 channels
Channel positions : Front: L C R, Rear: L R, LFE
Sampling rate : 48.0 KHz
Video delay : 16ms
Stream size : 263 MiB (13)
Alignment : Split accross interleaves
Interleave, duration : 96 ms (2.40 video frames)
Interleave, preload duration : 96 ms

related torrents

Torrent name

health leech seeds Size
 

comments (0)

Main Menu