Documentary

House 1980 696x472 xvid mp3 snach avi h33t

  • Download 5x Faster
  • Download torrent
  • Direct Download
  • Rate this torrent +  |  -
House 1980 696x472 xvid mp3 snach avi h33t

Free and Direct Download with Usenet.nl 300GB+ free


Torrent info

Name:House 1980 696x472 xvid mp3 snach avi h33t

Total Size: 550.39 MB

Magnet: Magnet Link

Seeds: 4

Leechers: 33

Stream: Watch Online @ Movie4u

Last Updated: 2010-01-19 10:36:03 (Update Now)

Torrent added: 2009-08-19 00:00:00





Torrent Files List


House.1980.696x472.xvid.mp3-snach.avi.avi (Size: 550.39 MB) (Files: 3)

 House.1980.696x472.xvid.mp3-snach.avi.avi

550.39 MB

 Torrent downloaded from Demonoid.com.txt

0.05 KB

 tracked_by_h33t_com.txt

0.02 KB
 

Announce URL: http://tracker.thepiratebay.org/announce

Torrent description

--This is my own TV capture of this doc--

House (1980)


Program Info
I couldn't find a description of this film, but here's
the info for the '96 sequel:

With his controversial 1980 documentary HOUSE,
Israeli filmmaker Amos Gitai confronted the
implications of the 1948 war on Palestinians by
following the history of a West Jerusalem home
requisitioned by the Israeli government. Gitai
continued the story in A HOUSE IN JERUSALEM, which
observed the changes in the intervening 18 years.
In the conclusion of Gitai's cinematic triptych,
scattered stories and memories define the expanding
diasporas surrounding the house, which stands as a
silent witness to the Israeli-Palestinian conflict.


Video Info
House.1980.696x472.xvid.mp3-snach.avi

Format : AVI
Format/Info : Audio Video Interleave
File size : 550 MiB
Duration : 49mn 3s
Overal bit rate : 1569 Kbps
Writing application : MediaCoder 0.6

Video
Format : MPEG-4 Visual
Format profile : Streaming [email protected]
Format settings, BVOP : No
Format settings, QPel : No
Format settings, GMC : 3 warppoints
Format settings, Matrix : Default
Codec ID : XVID
Codec ID/Hint : XviD
Duration : 49mn 3s
Bit rate : 1443 Kbps
Width : 696 pixels
Height : 472 pixels
Display aspect ratio : 4/3
Frame rate : 29.970 fps
Resolution : 8 bits
Colorimetry : 4:2:0
Scan type : Progressive
Bits/(Pixel*Frame) : 0.147
Stream size : 506 MiB
Writing library : XviD 1.2.0.dev47 (UTC 2006-11-01)

Audio
Format : MPEG Audio
Format version : Version 1
Format profile : Layer 3
Codec ID : 55
Codec ID/Hint : MP3
Duration : 49mn 3s
Bit rate mode : Constant
Bit rate : 112 Kbps
Channel(s) : 2 channels
Sampling rate : 48.0 KHz
Resolution : 16 bits
Stream size : 39.3 MiB


Trackers
http://tracker.conspiracycentral.net/announce
http://tracker.thepiratebay.org:80/announce
http://denis.stalker.h3q.com:6969/announce
http://open.tracker.thepiratebay.org/announce
http://torrent-downloads.to:5869/announce
http://www.h33t.com:3310/announce
http://inferno.demonoid.com:3403/announce

Visit us at:
http://tracker.ConspiracyCentral.net

Enjoy & Seed!

related torrents

Torrent name

health leech seeds Size
 

comments (0)

Main Menu