Drama

The Curious Case Of Benjamin ButtonH33T RICO

  • Download 5x Faster
  • Download torrent
  • Direct Download
  • Rate this torrent +  |  -
The Curious Case Of Benjamin ButtonH33T RICO

Anonymous and free Direct Download 300GB+


Torrent info

Name:The Curious Case Of Benjamin ButtonH33T RICO

Total Size: 1.69 GB

Magnet: Magnet Link

Seeds: 2

Leechers: 115

Stream: Watch Online @ Movie4u

Last Updated: 2009-12-08 13:48:29 (Update Now)

Torrent added: 2008-12-29 00:01:27



VPN For Torrents

Torrent Files List


The Curious Case Of Benjamin Button-RICO.mov (Size: 1.69 GB) (Files: 2)

 The Curious Case Of Benjamin Button-RICO.mov

1.69 GB

 tracked_by_h33t_com.txt

0.02 KB
 

Announce URL: http://www.h33t.com:3310/announce

Torrent description

The Curious Case Of Benjamin ButtonH33T RICO preview 0

General
Complete name

The.Curious.Case.Of.Benjamin.Button.2008.DVD.Screener-RICO\The Curious Case Of Benjamin Button-RICO.mov
Format : MPEG-4
Format profile : QuickTime
Codec ID : qt
File size : 1.69 GiB
Duration : 2h 43mn
Overall bit rate : 1 480 Kbps
Encoded date : UTC 2008-12-20 02:13:31
Tagged date : UTC 2008-12-20 08:32:56
Writing application : HandBrake 0.9.3 2008112300

Video
Format : MPEG-4 Visual
Format profile : [email protected]
Format settings, BVOP : No
Format settings, QPel : No
Format settings, GMC : No warppoints
Format settings, Matrix : Default
Codec ID : 20
Duration : 2h 43mn
Bit rate mode : Variable
Bit rate : 1 315 Kbps
Nominal bit rate : 1 185 Kbps
Maximum bit rate : 2 476 Mbps
Width : 718 pixels
Height : 354 pixels
Display aspect ratio : 2.404
Frame rate mode : Variable
Frame rate : 23.977 fps
Minimum frame rate : 11.991 fps
Maximum frame rate : 120.000 fps
Resolution : 24 bits
Colorimetry : 4:2:0
Scan type : Progressive
Bits/(Pixel*Frame) : 0.216
Stream size : 1.50 GiB (89%)
Writing library : Lavc52.0.0
Encoded date : UTC 2008-12-19 21:01:43
Tagged date : UTC 2008-12-20 08:32:56

Audio #1
Format : AAC
Format/Info : Advanced Audio Codec
Format version : Version 4
Format profile : LC
Format settings, SBR : No
Codec ID : 40
Duration : 1h 21mn
Bit rate mode : Variable
Bit rate : 160 Kbps
Maximum bit rate : 201 Kbps
Channel(s) : 2 channels
Channel positions : L R
Sampling rate : 48.0 KHz
Resolution : 16 bits
Stream size : 93.8 MiB (5%)
Encoded date : UTC 2008-12-19 21:01:43
Tagged date : UTC 2008-12-20 08:32:56

Audio #2
Format : AAC
Format/Info : Advanced Audio Codec
Format version : Version 4
Format profile : LC
Format settings, SBR : No
Codec ID : 40
Duration : 1h 21mn
Bit rate mode : Variable
Bit rate : 160 Kbps
Maximum bit rate : 203 Kbps
Channel(s) : 2 channels
Channel positions : L R
Sampling rate : 48.0 KHz
Resolution : 16 bits
Stream size : 93.2 MiB (5%)
Encoded date : UTC 2008-12-20 02:11:44
Tagged date : UTC 2008-12-20 08:32:56

related torrents

Torrent name

health leech seeds Size
 


comments (0)

Main Menu