Thriller

Hostage (2005) excellent quality (kubura)

  • Download 5x Faster
  • Download torrent
  • Direct Download
  • Rate this torrent +  |  -
Hostage (2005) excellent quality (kubura)

Anonymous and Direct Download 300GB+ free


Torrent info

Name:Hostage (2005) excellent quality (kubura)

Total Size: 1.06 GB

Magnet: Magnet Link

Seeds: 7

Leechers: 4

Stream: Watch Online @ Movie4u

Last Updated: 2010-10-25 20:46:13 (Update Now)

Torrent added: 2008-12-28 20:34:13




Torrent Files List


Hostage (2005).avi (Size: 1.06 GB) (Files: 3)

 Hostage (2005).avi

1.06 GB

 Hostage (2005).nfo

2.38 KB

 Hostage (2005).srt

89.30 KB
 

Announce URL: http://open.tracker.thepiratebay.org/announce

Torrent description


Director:
Florent Emilio Siri
Writers:
Robert Crais (novel)
Doug Richardson (screenplay)
Genre:
Action /Crime /Thriller

Tagline:
Every Second Counts...

Plot:
A failed police negotiator turned small town cop, must
save the lives of a family held hostage,
which draws him into a much more dangerous situation.
----------------------------------------------------------------------------------------
General:
--------
Complete name : Hostage (2005)
Format : AVI
Format/Info : Audio Video Interleave
File size : 1.06 GiB
Duration : 1h 48mn
Overall bit rate : 1 398 Kbps
Writing library : VirtualDub build 29963/release

Video
Format : MPEG-4 Visual
Format profile : Streaming [email protected]
Format settings, BVOP : Yes
Format settings, QPel : No
Format settings, GMC : No warppoints
Format settings, Matrix : Default
Codec ID : DX50
Codec ID/Hint : DivX 5
Duration : 1h 48mn
Bit rate : 1 277 Kbps
Width : 624 pixels
Height : 288 pixels
Display aspect ratio : 2.2
Frame rate : 25.000 fps
Resolution : 24 bits
Colorimetry : 4:2:0
Scan type : Progressive
Bits/(Pixel*Frame) : 0.284
Stream size : 992 MiB (91%)
Writing library : XviD 1.2.0SMP (UTC 2006-01-08)

Audio
Format : MPEG Audio
Format version : Version 1
Format profile : Layer 3
Codec ID : 55
Codec ID/Hint : MP3
Duration : 1h 48mn
Bit rate mode : Constant
Bit rate : 112 Kbps
Channel(s) : 2 channels
Sampling rate : 48.0 KHz
Resolution : 16 bits
Stream size : 87.0 MiB (8%)
Alignment : Split accross interleaves
Interleave, duration : 40 ms (1.00 video frame)
Interleave, preload duration : 500 ms

related torrents

Torrent name

health leech seeds Size
 


comments (0)

Main Menu