Action

Battle For Haditha 2007 DVDRIP XviD ZEKTORM

  • Download 5x Faster
  • Download torrent
  • Direct Download
  • Rate this torrent +  |  -
Battle For Haditha 2007 DVDRIP XviD ZEKTORM

Free and Direct Download with Usenet.nl 300GB+ free


Torrent info

Name:Battle For Haditha 2007 DVDRIP XviD ZEKTORM

Total Size: 703.66 MB

Magnet: Magnet Link

Seeds: 0

Leechers: 1

Stream: Watch Online @ Movie4u

Last Updated: 2016-01-02 06:31:02 (Update Now)

Torrent added: 2008-12-27 20:33:50





Torrent Files List


Battle.For.Haditha.2007.DVDRIP.XviD-ZEKTORM.avi (Size: 703.66 MB) (Files: 4)

 Battle.For.Haditha.2007.DVDRIP.XviD-ZEKTORM.avi

700.68 MB

 READ.hlp

10.66 KB

 Subs

  Battle.For.Haditha.2007.DVDRIP.XviD-ZEKTORM.idx

37.09 KB

  Battle.For.Haditha.2007.DVDRIP.XviD-ZEKTORM.sub

2.93 MB
 

tracker

leech seeds
 

Torrent description

Title : Battle for Haditha
Year : 2007
Genre : Drama | War
iMDB Rate : User Rating: 7.3/10 1,627 votes
iMDB URL : http://www.imdb.com/title/tt0870211/

Complete name : Battle.For.Haditha.2007.DVDRIP.XviD-ZEKTORM.avi
Format : AVI
File size : 701 MiB
Duration : 1h 32mn
Overall bit rate : 1054 Kbps
Subtitles : English (Format: VobSub)
Source : DVD NTSC

Video
Format : MPEG-4 Visual
Format profile : Streaming [email protected]
Codec ID : DX50
Codec ID/Hint : DivX 5
Duration : 1h 32mn
Bit rate : 933 Kbps
Width : 720 pixels
Height : 416 pixels
Display aspect ratio : 16/9
Frame rate : 29.970 fps
Resolution : 24 bits
Colorimetry : 4:2:0
Scan type : Progressive
Bits/(Pixel*Frame) : 0.104
Stream size : 620 MiB (89%)
Writing library : XviD 1.2.0

Audio
Format : MPEG Audio
Format version : Version 1
Format profile : Layer 3
Codec ID : 55
Codec ID/Hint : MP3
Duration : 1h 32mn
Bit rate mode : Constant
Bit rate : 112 Kbps
Channel(s) : 2 channels
Sampling rate : 44.1 KHz
Resolution : 16 bits
Stream size : 74.4 MiB (11%)
Writing library : LAME3.97

related torrents

Torrent name

health leech seeds Size

Battle for Haditha (2007)

1 0 700.07 MB 0
 

comments (0)

Main Menu