Thriller

Knight Moves

  • Download 5x Faster
  • Download torrent
  • Direct Download
  • Rate this torrent +  |  -
Knight Moves

Anonymous and Direct Download 300GB+ free


Torrent info

Name:Knight Moves

Total Size: 1.50 GB

Magnet: Magnet Link

Seeds: 0

Leechers: 0

Stream: Watch Online @ Movie4u

Last Updated: 2017-02-11 03:20:17 (Update Now)

Torrent added: 2008-12-27 15:51:22




Torrent Files List


Knight Moves.avi (Size: 1.50 GB) (Files: 2)

 Knight Moves.avi

1.50 GB

 knight.moves.nfo

5.00 KB
 

tracker

leech seeds
 

Torrent description

Knight Moves Ein moerderisches Spiel ist ein deutsch-amerikanischer Thriller aus dem Jahre 1992 und wurde von Carl Schenkel inszeniert. Die Hauptrollen spielen Christopher Lambert und Diane Lane.


General
Complete name : Knight Moves.avi
Format : AVI
Format/Info : Audio Video Interleave
File size : 1.50 GiB
Duration : 1h 51mn
Overall bit rate : 1 918 Kbps
Writing application : VirtualDubMod 1.5.4.1 (build 2178/release)
Writing library : VirtualDubMod build 2178/release

Video
Format : MPEG-4 Visual
Format profile : Streaming [email protected]
Format settings, BVOP : No
Format settings, QPel : No
Format settings, GMC : No warppoints
Format settings, Matrix : Custom
Codec ID : XVID
Codec ID/Hint : XviD
Duration : 1h 51mn
Bit rate : 1 463 Kbps
Width : 720 pixels
Height : 320 pixels
Display aspect ratio : 2.25
Frame rate : 25.000 fps
Resolution : 24 bits
Colorimetry : 4:2:0
Scan type : Progressive
Bits/(Pixel*Frame) : 0.254
Stream size : 1.14 GiB (76)
Writing library : XviD 50

Audio
Format : AC-3
Format/Info : Audio Coding 3
Codec ID : 2000
Duration : 1h 51mn
Bit rate mode : Constant
Bit rate : 448 Kbps
Channel(s) : 6 channels
Channel positions : Front: L C R, Rear: L R, LFE
Sampling rate : 48.0 KHz
Stream size : 358 MiB (23)
Alignment : Aligned on interleaves
Interleave, duration : 96 ms (2.40 video frames)
Language : Deutsch



Ripping Info: gewaehlte zielgroeße 4200mb

[20.12.2008 21:19:23] Chosen resolution is: 720x320 ( AR: 2,25 )
[20.12.2008 21:19:23] Predicted comptest value is: 331,15
[20.12.2008 21:19:23] Running first pass.

[20.12.2008 22:11:32] Expected quality of first pass size: 314,61
[20.12.2008 22:11:32] Trying to adjust settings.
[20.12.2008 22:11:32] No adjustment is possible
[20.12.2008 22:11:32] Warning: final AVI will likely be undersized.
[20.12.2008 22:11:32] Running second pass.





plot: [Spoiler gefahr]
--------------------------------------
Schachgroßmeister Peter Sanderson betreibt das Strategiespiel seit seiner Kindheit. Nach einer rauschenden Liebesnacht mit einer Bekannten waehrend eines Schachturniers wird diese morgens tot in ihrem Bett aufgefunden. Ihre Leiche wurde akribisch in Szene gesetzt, so wurden ihr zum Beispiel die Pulsadern aufgeschnitten, ohne dass auch nur ein Tropfen Blut verschuettet worden waere. Der Verdacht faellt schnell auf Sanderson, daher setzt Captain Frank Sedman die Psychologin Sheppard auf ihn an, doch schon bald verfallen Sanderson und sie einer gemeinsame Affaere. Ein unbekannter Anrufer meldet sich bei Sanderson, gesteht diesen und einen zweiten Mord und kuendigt weitere Bluttaten an, die allesamt Bestandteil eines Spiels gegen den Schachgroßmeister sind.

Sanderson zeigt sich emotional nur wenig von den Morden beruehrt und konzentriert sich lieber weiter auf das Turnier. Obgleich es keine stichhaltigen Beweise gegen ihn gibt, sind Sedman und sein Assistent Dept. Wagner ueberzeugt, dass Sanderson der Taeter ist. Sheppard hingegen kommt nach anfaenglichen Zweifeln zu einem anderen Schluss. Weitere Morde geschehen, bis dem Schachprofi klar wird, dass der Taeter die Stadt als Schachbrett benutzt und er den naechsten Zug vorausahnen muss, um weitere Opfer zu verhindern. Doch der geistig gestoerte Moerder erweist sich als gefaehrlich genial und kann durch falsche Indizien selbst Sheppard gegenueber die Schuld Sandersons vortaeuschen, so dass er schließlich verhaftet wird.

Erst im Gefaengnis kann Sanderson die vom Taeter gestreuten Hinweise richtig zusammensetzen. Ihm wird klar, dass der Taeter es auf seine kleine Tochter Erica abgesehen hat. Als er bei Sedman auf taube Ohren stoeßt, dreht Sanderson durch, ueberrumpelt die Polizisten und kann fliehen, um seiner Tochter zur Hilfe zu eilen. Im Showdown kommt es zur Begegnung mit dem Taeter. Dieser entpuppt sich als ein ehemaliger Schachgegner, der sich für ein verlorenes Spiel zu Kinderzeiten raechen will, da er in diesem den Grund für seine zerruettete Kindheit, den Zerfall seiner Familie und damit seiner psychischen Krankheit sieht. Waehrend die Polizisten Wagner und Sedman dem Moerder zum Opfer fallen, ueberlebt Sanderson den schweren Kampf mit Hilfe von Sheppard und erschießt den Taeter schließlich.
--------------------------------------

http://h-n-h.ath.cx

related torrents

Torrent name

health leech seeds Size

knight moves

0 0 698.82 MB 0
 


comments (0)

Main Menu