Anime - Other

Noein mou hitori no kimi he phoenix tk

  • Download 5x Faster
  • Download torrent
  • Direct Download
  • Rate this torrent +  |  -
Noein mou hitori no kimi he phoenix tk

Download FREE And Anonymously


Torrent info

Name:Noein mou hitori no kimi he phoenix tk

Total Size: 533.42 MB

Magnet: Magnet Link

Seeds: 0

Leechers: 0

Stream: Watch Full Movie @ Movie4u

Last Updated: 2015-05-23 13:51:04 (Update Now)

Torrent added: 2008-12-27 12:33:26



VPN For Torrents

Torrent Files List


[C-A]Noein_01 ~ Mou Hitori no Kimi e_01.zip (Size: 533.42 MB) (Files: 3)

 [C-A]Noein_01 ~ Mou Hitori no Kimi e_01.zip

176.07 MB

 [C-A]Noein_02 ~ Mou Hitori no Kimi e_02.zip

173.47 MB

 [C-A]Noein_03 ~ Mou Hitori no Kimi e_03.zip

183.89 MB
 

tracker

leech seeds
 

Torrent description

[size=7][color=firebrick].: Noein - mou hitori no kimi he :.[/color][/size]

Noein   mou hitori no kimi he phoenix tk preview 1

[img=Noein   mou hitori no kimi he phoenix tk preview 0]


Noein   mou hitori no kimi he phoenix tk preview 2
[size=4]
Origine de la serie : Japonaise
Episodes : 24
Réalisateurs : Kazuki Akane et Kenji Yasuda
Musique : Hikaru Nanase
Character Design: Takahiro Kishida
Production : studio Satelight
Diffusion : Bandai Channel, Chiba TV, KIDS STATION,
Sun TV, TV Aichi, TV Kanagawa et TV Saitama.
Genre : aventure, romance, science-fiction
Durée : 25
Langue : Japonaise
Sous-titre : Français
Date de diffusion : 12 octobre 2005


Noein   mou hitori no kimi he phoenix tk preview 3

Noein conte l'histoire d'une guerre qui prend place dans le futur, où deux dimensions s'affrontent,
Lacryma celle des hommes (tentant de sauver leur monde) et Shangri La dirigée par le mystérieux Noein.
Les habitants de Lacryma plongent dans les dimensions passées et futures afin de retrouver le Torque
du Dragon. L'un de ces explorateurs va finalement découvrir le précieux objet incarné en la personne
d'Haruka. Écolière ordinaire, elle se retrouve impliquée dans un conflit la dépassant, elle et son
meilleur ami Yuu enfant tourmenté qui ne souhaite que fuguer et découvrira avec stupéfaction
l'identité du mystérieux explorateur et kidnappeur nommé Karas.

[color=royalblue]
Noein est est une série très particulière tant au niveau du dessin que du scénario, avec un mélange
de 2D faisant parfois penser à des croquis que l'on nous fait passer devant les yeux et de 3D
superbement réalisé mais qui pourrait cependant déplaire aux personnes préférant des dessins toujours
très nets, propres et carrés, même si l'animé possède une grande fluidité pendant les phases de
combats qui sont soit dit en passant très belles et plutôt bien réalisées, si tant est que l'on aime
le style du dessin.

Pour ce qui est du scénario, c'est à la fois le point fort et le point faible de la série, si la
trame principale est relativement ordinaire à première vue (une héroïne qui doit sauver le monde),
on se rend vite compte qu'en réalité tout est plutôt complexe et demande même parfois pas mal de
connaissances notamment en physique car tout est basé sur les théories de mécanique quantique, sur
les univers parallèles et l'existence même de la matière ; ce qui peut vite donné mal à la tête
surtout dans certains épisodes avec des explications relativement poussées.

Ce qui fait aussi de Noein une série particulière, c'est la psychologie des personnages de la série,
et leurs façon de réagir face aux dangers et aux éventuels destins qui pourraient les attendre. Sur
ce point, la palme revient à Yuu et Haruka, qui n'ont de cesse de vouloir tout faire changer (un peu
comme dans le film L'effet papillon). Et sinon, que dire de la musique qui est plutôt bonne et qui
colle parfaitement à l'ambiance générale.

En bref, Noein est un excellent animé que je recommande à tout ceux qui voudraient changer de style
de dessin et qui n'ont pas peur de faire travailler leurs méninges.
[/color]

Noein   mou hitori no kimi he phoenix tk preview 4


Saison :[color=red] 1, 3 premiers épisodes[/color]
Nombre de fichiers : [color=red] 3[/color]


Format : AVI
Format/Info : Audio Video Interleave
Overall bit rate : 990 Kbps
Writing application : VirtualDubMod 1.4.13
Writing library : VirtualDub build 14328/release

[color=royalblue]Video[/color]
Format : MPEG-4 Visual
Format profile : Streaming [email protected]
Format settings, BVOP : Yes
Format settings, QPel : No
Format settings, GMC : 3 warppoints
Format settings, Matrix : Default
Muxing mode : Packed bitstream
Codec ID : XVID
Codec ID/Hint : XviD
Duration : 25mn 9s
Bit rate : 852 Kbps
Width : 640 pixels
Height : 356 pixels
Display aspect ratio : 16/9
Frame rate : 23.976 fps
Resolution : 24 bits
Colorimetry : 4:2:0
Scan type : Progressive
Bits/(Pixel*Frame) : 0.156
Stream size : 153 MiB (86%)
Writing library : XviD 1.0.1 (UTC 2004-06-05)

[color=royalblue]Audio[/color]
Format : MPEG Audio
Format version : Version 1
Format profile : Layer 3
Codec ID : 55
Codec ID/Hint : MP3
Bit rate mode : Constant
Bit rate : 128 Kbps
Minimum bit rate : 128 Kbps
Channel(s) : 2 channels
Sampling rate : 48.0 KHz
Resolution : 16 bits
Stream size : 23.0 MiB (13%)
Alignment : Split accross interleaves
Interleave, duration : 42 ms (1.00 video frame)
Interleave, preload duration : 499 ms
Writing library : LAME3.96r
Encoding settings : CBR
[/size]
[size=3]
Complete name : [C-A]Noein_01 ~ Mou Hitori no Kimi e_01.avi
File size : 178 MiB
Duration : 25mn 9s

Complete name : [C-A]Noein_02 ~ Mou Hitori no Kimi e_02.avi
File size : 175 MiB
Duration : 25mn 9s

Complete name : [C-A]Noein_03 ~ Mou Hitori no Kimi e_03.avi
File size : 185 MiB
Duration : 25mn 10s
[/size]


Noein   mou hitori no kimi he phoenix tk preview 5


Noein   mou hitori no kimi he phoenix tk preview 6

related torrents

Torrent name

health leech seeds Size
 


comments (0)

Main Menu

 

script data-cfasync="false" src="//d2ghscazvn398x.cloudfront.net/?cshgd=690275">