TV - Other

Sabrina Total verhext Staffel 4 german XviD

  • Download 5x Faster
  • Download torrent
  • Direct Download
  • Rate this torrent +  |  -
Sabrina Total verhext Staffel 4 german XviD

Anonymous and Free Direct Download 300GB+


Torrent info

Name:Sabrina Total verhext Staffel 4 german XviD

Total Size: 3.05 GB

Magnet: Magnet Link

Seeds: 0

Leechers: 0

Stream: Watch Online @ Movie4u

Last Updated: 2010-12-29 14:22:03 (Update Now)

Torrent added: 2008-12-26 04:38:21



VPN For Torrents

Torrent Files List


Sabrina_Total_verhext_04x21_sabrina_mal_vier_by_mhh1102.avi.!ut (Size: 3.05 GB) (Files: 22)

 Sabrina_Total_verhext_04x21_sabrina_mal_vier_by_mhh1102.avi.!ut

137.69 MB

 Sabrina_Total_verhext_04x02_Der_Zauberlehrling_by_mhh1102.avi.!ut

136.04 MB

 Sabrina_Total_verhext_04x18_Eine_Maus_namens_Dreama_by_mhh1102.avi.!ut

141.81 MB

 Sabrina_Total_verhext_04x16_Fauler_Zauber_by_mhh1102.avi.!ut

145.22 MB

 Sabrina_Total_verhext_04x08_Eine_Frage_des_Alters_by_mhh1102.avi.!ut

136.23 MB

 Sabrina_Total_verhext_04x11_Salem_und_Juliette_by_mhh1102.avi.!ut

139.72 MB

 Sabrina_Total_verhext_04x17_Salems_Tochter_by_mhh1102.avi.!ut

195.37 MB

 Sabrina_Total_verhext_04x19_Es_lebe_das_Chaos_by_mhh1102.avi.!ut

132.81 MB

 Sabrina_Total_verhext_04x22_Schluss_mit_lustig_by_mhh1102.avi.!ut

156.78 MB

 Sabrina_Total_verhext_04x15_Blueten_der_Liebe_by_mhh1102.avi.!ut

138.65 MB

 Sabrina_Total_verhext_04x14_Lauter_Helden_by_mhh1102.avi.!ut

144.30 MB

 Sabrina_Total_verhext_04x20_EineCousine_zuviel_by_mhh1102.avi.!ut

135.20 MB

 Sabrina_Total_verhext_04x13_Duenn,duenner,am_duemmsten_by_mhh1102.avi.!ut

137.66 MB

 Sabrina.Total.verhext.S04E01.Paris.ruft.avi.!ut

145.44 MB

 Sabrina_Total_verhext_04x10_Eiskalt_erwischt_by_mhh1102.avi.!ut

134.11 MB

 Sabrina_Total_verhext_04x04_voellig_aufgeloest_by_mhh1102.avi.!ut

130.40 MB

 Sabrina_Total_verhext_04x06_Katzenhorror_by_mhh1102.avi.!ut

141.02 MB

 Sabrina_Total_verhext_04x09_Altes_neues_Glueck_by_mhh1102.avi.!ut

135.02 MB

 Sabrina_Total_verhext_04x12_Zum_schmelzen schoen_by_mhh1102.avi.!ut

140.61 MB

 Sabrina_Total_verhext_04x07_Wer_kuesst_wen_by_mhh1102.avi.!ut

137.96 MB

 Sabrina_Total_verhext_04x03_Eifersucht_by_mhh1102.avi.!ut

138.34 MB

 Sabrina_Total_verhext_04x05_Haben,Haben,Haben_by_mhh1102otr.avi.!ut

138.75 MB
 

Announce URL:

Torrent description

!!GERMAN TRACKER!!


Sabrina: Total verhext Complete Season 4

-------------------------

Serie

Sprache: [X] Deutsch [X] Englisch [ ] siehe Beschreibung

Video: [ ] HDTV [X] DVD [ ] TV/dTV [ ] TS [ ] Cam [ ] Sonstiges
Audio: [ ] AC3 [X] DVD [ ] TV/dTV [ ] LD [ ] Micro [ ] Sonstiges

Genre: TV-Serie/Comedy/Sitcom


Untertitel: keine

Extras: keine



-------------------------
Beschreibung:
Sabrina zieht kurz vor ihrem 16. Geburtstag zu ihren Tanten nach Riverdale. Dort macht sie eine erstaunliche Entdeckung: Sie ist eine Hexe - genau wie ihre Tanten Hilda und Zelda und ihr Vater! Anfangs hat sie Probleme mit ihren magischen Faehigkeiten, doch schnell erkennt sie, wie nuetzlich es ist, hin und wieder mit Zauberei etwas nachhelfen zu koennen. "Sabrina - Total verhext!" ist eine freche, unterhaltsame Sitcom - nicht nur fuer Teenager.

-------------------------
Teschnische Details:
General
Complete name : Sabrina.Total.verhext.S02E01.Lizenz.zum.Zaubern.Teil.1.avi
Format : AVI
Format/Info : Audio Video Interleave
File size : 186 MiB
Duration : 21mn 44s
Overall bit rate : 1195 Kbps
Writing application : VirtualDubMod 1.5.10.2 (build 2540/release)
Writing library : VirtualDubMod build 2540/release

Video
Format : MPEG-4 Visual
Format profile : Streaming [email protected]
Format settings, BVOP : Yes
Format settings, QPel : No
Format settings, GMC : No warppoints
Format settings, Matrix : Default
Muxing mode : Packet Bitstream
Codec ID : XVID
Codec ID/Hint : XviD
Duration : 21mn 44s
Bit rate : 979 Kbps
Width : 528 pixels
Height : 384 pixels
Display aspect ratio : 1.375
Frame rate : 23.976 fps
Resolution : 8 bits
Colorimetry : 4:2:0
Scan type : Progressive
Bits/(Pixel*Frame) : 0.201
Stream size : 152 MiB (82)
Writing library : XviD 1.2.0.dev47 (UTC 2006-11-01)

Audio #1
Format : MPEG Audio
Format version : Version 1
Format profile : Layer 3
Codec ID : 55
Codec ID/Hint : MP3
Duration : 21mn 44s
Bit rate mode : Constant
Bit rate : 64.0 Kbps
Channel(s) : 1 channel
Sampling rate : 48.0 KHz
Resolution : 16 bits
Stream size : 9.96 MiB (5)
Alignment : Aligned on interleaves
Interleave, duration : 42 ms (1.00 video frame)
Interleave, preload duration : 504 ms

Audio #2
Format : MPEG Audio
Format version : Version 1
Format profile : Layer 3
Codec ID : 55
Codec ID/Hint : MP3
Duration : 21mn 44s
Bit rate mode : Variable
Bit rate : 135 Kbps
Minimum bit rate : 128 Kbps
Channel(s) : 2 channels
Sampling rate : 48.0 KHz
Resolution : 16 bits
Stream size : 20.9 MiB (11)
Alignment : Aligned on interleaves
Interleave, duration : 24 ms (0.58 video frame)
Interleave, preload duration : 137 ms
Writing library : LAME3.96r
Encoding settings : ABR

4. Staffel:

77. Paris ruft

78. Sabrina verhext Australien

79. Der Zauberlehrling

80. Eifersucht

81. Völlig aufgelöst

82. Haben, haben, haben

83. Katzenhorror

84. Wer küsst wen?

85. Eine Frage des Alters

86. Altes neues Glück

87. Eiskalt erwischt

88. Salem und Juliette

89. Zum Schmelzen schön

90. Dünn, dünner, am Dümmsten

91. Lauter Helden

92. Blüten der Liebe

93. Fauler Zauber

94. Salems Tochter

95. Eine Maus namens Dreama

96. Es lebe das Chaos

97. Eine Cousine zu viel

98. Sabrina mal vier

99. Schluss mit lustig

related torrents

Torrent name

health leech seeds Size
 


comments (0)

Main Menu