Horror

Passengers2008 Dvdrip Xvid Eng,Spa AC35 1 RoCK&BlueLadyRG

  • Download 5x Faster
  • Download torrent
  • Direct Download
  • Rate this torrent +  |  -
Passengers2008 Dvdrip Xvid Eng,Spa AC35 1 RoCK&BlueLadyRG

Free and Direct Download with Usenet.nl 300GB+ free


Torrent info

Name:Passengers2008 Dvdrip Xvid Eng,Spa AC35 1 RoCK&BlueLadyRG

Total Size: 1.56 GB

Magnet: Magnet Link

Seeds: 3

Leechers: 84

Stream: Watch Online @ Movie4u

Last Updated: 2010-08-13 04:45:41 (Update Now)

Torrent added: 2008-12-25 12:36:41





Torrent Files List


Passengers[2008].Dvdrip.Xvid.[Eng,Spa].AC3[5.1]-RoCK&BlueLadyRG.avi (Size: 1.56 GB) (Files: 3)

 Passengers[2008].Dvdrip.Xvid.[Eng,Spa].AC3[5.1]-RoCK&BlueLadyRG.avi

1.56 GB

 Passengers[2008].Dvdrip.Xvid.[Eng,Spa].AC3[5.1]-RoCK&BlueLadyRG.nfo

5.77 KB

 Passengers[2008].Dvdrip.Xvid.[Eng,Spa].AC3[5.1]-RoCK&BlueLadyRG.srt

58.99 KB
 

Announce URL: http://vip.tracker.thepiratebay.org:80/announce

Torrent description


RoCK & BlueLady RG

*******************************************************************************
Proudly presents: Passengers (2008)
*******************************************************************************

-------------------------------------------------------------------------------
General Information
-------------------------------------------------------------------------------
Type : Movie
Extra information : Dual audio English/Spanish
Burn Tested : Yes
Subtitles : English
: Dutch can be found on http://www.genesis-sp.com

Format : AVI
Format/Info : Audio Video Interleave
File size : 1.56 GiB
Duration : 1h 28mn
Overall bit rate : 2 517 Kbps
Writing application : VirtualDubMod 1.5.10.2 (build 2540/release)
Writing library : VirtualDubMod build 2540/release

Audio Enlish
Format : AC-3
Format/Info : Audio Coding 3
Codec ID : 2000
Duration : 1h 28mn
Bit rate mode : Constant
Bit rate : 448 Kbps
Channel(s) : 6 channels
Channel positions : Front: L C R, Surround: L R, LFE
Sampling rate : 48.0 KHz
Stream size : 285 MiB (18%)
Alignment : Split accross interleaves
Interleave, duration : 40 ms (1.00 video frame)
Interleave, preload duration : 500 ms

Audio Spanish
Format : AC-3
Format/Info : Audio Coding 3
Codec ID : 2000
Duration : 1h 28mn
Bit rate mode : Constant
Bit rate : 448 Kbps
Channel(s) : 6 channels
Channel positions : Front: L C R, Surround: L R, LFE
Sampling rate : 48.0 KHz
Stream size : 285 MiB (18%)
Alignment : Split accross interleaves
Interleave, duration : 40 ms (1.00 video frame)
Interleave, preload duration : 500 ms

Video
Format : MPEG-4 Visual
Format settings, BVOP : No
Format settings, QPel : No
Format settings, GMC : No warppoints
Format settings, Matrix : Default
Codec ID : XVID
Codec ID/Hint : XviD
Duration : 1h 28mn
Bit rate : 1 606 Kbps
Width : 704 pixels
Height : 288 pixels
Display aspect ratio : 2.444
Frame rate : 25.000 fps
Resolution : 24 bits
Colorimetry : 4:2:0
Scan type : Progressive
Bits/(Pixel*Frame) : 0.317
Stream size : 1 021 MiB (64%)
Writing library : XviD 1.0.3 (UTC 2004-12-20)

Source : Retail-DVD
Original Format : PAL
Genre : Horror | Thriller
IMDb Rating : 6.0 (796 Votes)
Movie Information : http://www.imdb.com/title/tt0449487/

-------------------------------------------------------------------------------
Post Information
-------------------------------------------------------------------------------
Posted by............: RoCK (http://www.genesis-sp.com)
Posted on............: 25-12-2008

-------------------------------------------------------------------------------
Release Notes
-------------------------------------------------------------------------------
After a plane crash, a young therapist, Claire, is assigned by her mentor to counsel the flight's five survivors. When they share their recollections of the incident -- which some say include an explosion that the airline claims never happened -- Claire is intrigued by Eric, the most secretive of the passengers. Just as Claire's professional relationship with Eric -- despite her better judgment -- blossoms into a romance, the survivors begin to disappear mysteriously, one by one. Claire suspects that Eric may hold all the answers and becomes determined to uncover the truth, no matter the consequences.

Director: Rodrigo Garcφa

Writer : Ronnie Christensen

Cast :

Anne Hathaway ... Claire Summers
Patrick Wilson ... Eric
Andre Braugher ... Perry
Dianne Wiest ... Toni
David Morse ... Arkin
William B. Davis ... Jack
Ryan Robbins ... Dean
Clea DuVall ... Shannon
Don Thompson ... Norman
Andrew Wheeler ... Blonde Man
Chelah Horsdal ... Janice
Karen Austin ... Hospital Receptionist
Elzanne Fourie ... Young Emma
Stacy Grant ... Emma
Conner Dwelly ... Young Claire

Enjoy this movie!



------------------------------------------------------------------------------------------
Announcement
------------------------------------------------------------------------------------------
I decided to drop the 1cd versions and replace them with movies in MKV format. This means
smaller filesizes with higher quality. The movies you can watch in VLC or download the x264
codec!

If you want to decode it and burn it on dvd use convertxtodvd 3


RoCK.






------------------------------------------------------------------------------------------
You can find us both at: http://www.genesis-sp.com/
------------------------------------------------------------------------------------------

related torrents

Torrent name

health leech seeds Size
 

comments (0)

Main Menu