TV - Other

Emmerdale (27th June 2008) PDTV (Xvid) xtremespeeds net

  • Download 5x Faster
  • Download torrent
  • Direct Download
  • Rate this torrent +  |  -
Emmerdale (27th June 2008) PDTV (Xvid) xtremespeeds net

Anonymous and Direct Download 300GB+ free


Torrent info

Name:Emmerdale (27th June 2008) PDTV (Xvid) xtremespeeds net

Total Size: 174.76 MB

Magnet: Magnet Link

Seeds: 4

Leechers: 0

Stream: Watch Online @ Movie4u

Last Updated: 2010-04-13 13:23:37 (Update Now)

Torrent added: 2008-06-28 15:43:09




Torrent Files List


Emmerdale (27th June 2008) [PDTV (Xvid)].nfo (Size: 174.76 MB) (Files: 2)

 Emmerdale (27th June 2008) [PDTV (Xvid)].nfo

2.51 KB

 mmerdale (27th June 2008) [PDTV (Xvid)].avi

174.76 MB
 

Announce URL: http://xtremespeeds.net/announce.php?passkey=tssespecialtorrentv1byxamsep2007

Torrent description

Emmerdale (27th June 2008) [PDTV (Xvid)].avi

website:-
http://www.itv.com/Soaps/emmerdale/default.html

Emmerdale (Soap)
Time - 19:00 - 19:30 (30 minutes long)
When - Friday 27th June on ITV1 London
A deluded Marlon quits the Woolpack for greener pastures. Pollard is relieved when Val offers

financial help. Mel asks for more time with Arthur.
Director: Graham Moore
Starring: Mark Charnock, Christopher Chittell, Charlie Hardwick, Caroline Strong, John Middleton,

Shaun Prendergast
(Stereo, Widescreen, Subtitles, Audio Described)


Video info:-

Complete name : Emmerdale (27th June 2008) [PDTV (Xvid)].avi
Format : AVI
Format/Info : Audio Video Interleave
File size : 175 MiB
Duration : 21mn 34s
Overal bit rate : 1134 Kbps
Writing application : VirtualDubMod 1.5.4.1 (build 2178/release)
Writing library : VirtualDubMod build 2178/release

Video
Format : MPEG-4 Visual
Format settings, BVOP : No
Format settings, QPel : No
Format settings, GMC : 0 warppoint
Format settings, Matrix : Default
Codec ID : XVID
Codec ID/Hint : XviD
Duration : 21mn 34s
Bit rate : 999 Kbps
Width : 640 pixels
Height : 368 pixels
Display aspect ratio : 16/9
frame rate : 25.000 fps
Resolution : 8 bits
Colorimetry : 4:2:0
Scan type : Progressive
Bits/(Pixel*frame) : 0.170
Stream size : 154 MiB
Writing library : XviD 1.0.1
Writing library/Date : UTC 2004-06-05

Audio
Format : MPEG Audio
Format version : Version 1 / Layer 3
Codec ID : 55
Codec ID/Hint : MP3
Duration : 21mn 34s
Bit rate mode : CBR
Bit rate : 128 Kbps
Minimum bit rate : 128 Kbps
Channel(s) : 2 channels
Sampling rate : 48.0 KHz
Resolution : 16 bits
Stream size : 19.7 MiB
Writing library : LAME3.97
Encoding settings : CBR

related torrents

Torrent name

health leech seeds Size
 


comments (0)

Main Menu